<?xml version="1.0" standalone="no"?>
<!DOCTYPE svg PUBLIC "-//W3C//DTD SVG 1.1//EN" "http://www.w3.org/Graphics/SVG/1.1/DTD/svg11.dtd" >
<svg xmlns="http://www.w3.org/2000/svg">
<metadata>Generated by IcoMoon</metadata>
<defs>
<font id="lcicons" horiz-adv-x="1024">
<font-face units-per-em="1024" ascent="960" descent="-64" />
<missing-glyph horiz-adv-x="1024" />
<glyph unicode="&#x20;" horiz-adv-x="512" d="" />
<glyph unicode="&#xe900;" glyph-name="auto" d="M360.227-63.977c-20.386 0.007-36.891 16.513-36.901 36.898v0 950.167c0.012 20.386 16.517 36.891 36.901 36.898v0l190.033 0.004c20.381-0.012 36.887-16.517 36.9-36.901v0-950.167c-0.013-20.386-16.514-36.891-36.9-36.898v0h-190.033zM352.843 923.085l0.004-950.167c0.007-4.068 3.308-7.373 7.38-7.38v0h190.033c4.065 0.007 7.368 3.312 7.376 7.38v0h0.004l-0.004 950.167c-0.007 4.072-3.308 7.373-7.376 7.38v0h-190.033c-4.072-0.007-7.373-3.308-7.384-7.38v0zM672.029 48.562c0-12.227-9.912-22.14-22.14-22.14h-389.292c-12.227 0-22.14 9.912-22.14 22.14v88.559c0 12.227 9.912 22.14 22.14 22.14h389.292c12.227 0 22.14-9.912 22.14-22.14v-88.559zM695.442 875.483c7.716 1.286 17.821 2.386 30.664 2.386 15.802 0 27.359-3.67 34.713-10.287 6.789-5.875 10.825-14.869 10.825-25.887 0-11.2-3.304-20.012-9.554-26.441-8.432-8.993-22.218-13.592-37.811-13.592-4.784 0-9.193 0.189-12.856 1.107v-49.578h-15.984v122.294zM711.427 815.806c3.481-0.918 7.893-1.286 13.213-1.286 19.287 0 31.038 9.368 31.038 26.441 0 16.341-11.57 24.234-29.197 24.234-6.984 0-12.307-0.552-15.055-1.286v-48.102zM694.442 636.389c8.089 1.653 19.643 2.571 30.664 2.571 17.073 0 28.091-3.124 35.807-10.1 6.251-5.508 9.731-13.956 9.731-23.502 0-16.341-10.284-27.173-23.322-31.584v-0.545c9.554-3.312 15.25-12.125 18.179-24.975 4.039-17.259 6.984-29.191 9.555-33.969h-16.518c-2.037 3.67-4.785 14.136-8.269 29.564-3.677 17.073-10.284 23.503-24.788 24.050h-15.055v-53.616h-15.984v122.105zM710.427 580.019h16.34c17.072 0 27.913 9.368 27.913 23.502 0 15.974-11.57 22.956-28.468 23.136-7.714 0-13.213-0.732-15.786-1.464v-45.173zM688.29 251.394v123.757h17.448l39.663-62.616c9.183-14.502 16.34-27.541 22.218-40.212l0.356 0.19c-1.464 16.52-1.82 31.574-1.82 50.854v51.781h15.055v-123.757h-16.162l-39.294 62.794c-8.625 13.778-16.893 27.913-23.142 41.316l-0.553-0.186c0.927-15.602 1.286-30.48 1.286-51.041v-52.883h-15.054zM683.977 149.346c9.731 1.472 21.304 2.571 33.966 2.571 22.966 0 39.307-5.322 50.132-15.423 11.018-10.1 17.447-24.42 17.447-44.432 0-20.198-6.248-36.727-17.806-48.112-11.57-11.564-30.664-17.806-54.718-17.806-11.393 0-20.932 0.546-29.020 1.467v121.734zM699.961 39.913c4.037-0.732 9.91-0.918 16.161-0.918 34.151 0 52.687 19.091 52.687 52.516 0.196 29.188-16.341 47.738-50.116 47.738-8.265 0-14.516-0.732-18.731-1.653v-97.68zM437.716-1.252v891.127h35.055v-891.127h-35.055z" />
<glyph unicode="&#xe901;" glyph-name="batcap" d="M827.125 884.471c-6.196 6.58-15.239 10.915-25.161 10.901h-160.295c0.311 1.469 0.482 2.989 0.482 4.55v38.227c0 12.064-9.78 21.845-21.845 21.845h-216.623c-12.064 0-21.845-9.78-21.845-21.845v-38.227c0-1.56 0.171-3.080 0.482-4.55h-160.295c-9.925 0.014-18.969-4.319-25.167-10.901-6.243-6.573-9.974-15.544-9.974-25.205v-887.129c0-9.657 3.73-18.628 9.974-25.198 6.198-6.58 15.239-10.918 25.167-10.904h579.988c9.901 0 18.925 4.336 25.109 10.901 6.243 6.572 9.978 15.544 9.978 25.201v887.129c0.001 9.661-3.733 18.632-9.978 25.205zM802.514-27.864c0-0.724-0.26-1.159-0.476-1.397-0.058-0.060-0.105-0.097-0.135-0.115h-579.812c-0.137 0.105-0.637 0.575-0.613 1.51v887.129c0 0.732 0.265 1.162 0.476 1.398 0.058 0.063 0.104 0.097 0.132 0.117h579.813c0.137-0.105 0.636-0.573 0.613-1.515v-887.129zM788.692 306.89c0-14.301-9.78-25.897-21.845-25.897h-509.702c-12.064 0-21.845 11.594-21.845 25.897v215.801c0 14.301 9.78 25.897 21.845 25.897h509.702c12.064 0 21.845-11.594 21.845-25.897v-215.801zM788.692 15.631c0-14.301-9.78-25.897-21.845-25.897h-509.702c-12.064 0-21.845 11.594-21.845 25.897v215.801c0 14.301 9.78 25.897 21.845 25.897h509.702c12.064 0 21.845-11.594 21.845-25.897v-215.801z" />
<glyph unicode="&#xe902;" glyph-name="battype" d="M827.133 884.471c-6.196 6.58-15.239 10.915-25.161 10.901h-160.297c0.311 1.469 0.482 2.989 0.482 4.55v38.228c0 12.064-9.78 21.845-21.845 21.845h-216.626c-12.064 0-21.845-9.78-21.845-21.845v-38.228c0-1.56 0.171-3.080 0.482-4.55h-160.297c-9.925 0.014-18.969-4.319-25.167-10.901-6.243-6.573-9.974-15.544-9.974-25.205v-887.142c0-9.657 3.73-18.628 9.974-25.198 6.198-6.58 15.239-10.918 25.167-10.904h579.996c9.901 0 18.925 4.336 25.109 10.901 6.243 6.572 9.978 15.544 9.978 25.201v887.142c0.001 9.661-3.733 18.632-9.978 25.205zM802.521-27.877c0-0.724-0.26-1.159-0.476-1.397-0.058-0.060-0.105-0.097-0.135-0.115h-579.817c-0.137 0.105-0.637 0.575-0.613 1.51v887.142c0 0.732 0.265 1.162 0.476 1.398 0.058 0.063 0.104 0.097 0.132 0.117h579.821c0.137-0.105 0.636-0.573 0.613-1.515v-887.142zM754.46 436.642l-234.74 32.431 120.458 355.197-370.638-462.788 208.482-19.047-168.334-341.298z" />
<glyph unicode="&#xe903;" glyph-name="chargetime" d="M195.242 451.421l14.484 14.285c-8.676 8.921-16.994 18.236-24.372 28.279l-16.268-12.213c7.923-10.772 16.837-20.781 26.157-30.351zM251.433 406.807l10.628 17.35c-10.683 6.398-20.76 13.77-30.43 21.601l-12.873-15.753c10.381-8.41 21.208-16.316 32.676-23.197zM316.47 377.065l6.172 19.383c-11.889 3.748-23.438 8.459-34.749 13.657l-8.717-18.385c12.14-5.589 24.544-10.637 37.293-14.656zM109.658 644.666l20.316 1.087c-0.533 12.435-0.503 24.906 0.555 37.32l-20.277 1.667c-1.132-13.326-1.176-26.719-0.594-40.074zM122.202 574.018l19.46 5.94c-3.648 11.903-6.554 24.047-8.463 36.351l-20.081-3.263c2.056-13.212 5.172-26.25 9.084-39.027zM151.092 508.607l17.491 10.391c-6.426 10.68-11.916 21.892-16.88 33.31l-18.721-7.963c5.319-12.253 11.223-24.277 18.111-35.737zM478.408 951.066c-99.572 24.819-199.922-3.576-271.078-67.151 4.462-4.863 8.966-9.677 13.584-14.356 13 11.567 27.032 21.892 41.903 30.832 61.126 36.717 136.159 50.114 210.812 31.509 74.649-18.618 134.609-65.67 171.346-126.783 36.715-61.131 50.115-136.16 31.509-210.815-18.618-74.649-65.67-134.609-126.787-171.345-57.96-34.817-128.423-48.648-199.21-34.125-0.862-6.346-1.827-12.999-2.984-19.556 155.384-31.335 309.405 64.885 348.147 220.247 39.84 159.833-57.416 321.687-217.243 361.543zM344.268 369.962c0.468 6.673 3.156 12.796 4.979 19.136zM350.487 388.831c-0.413 0.085-0.828 0.179-1.24 0.266-1.822-6.338-4.509-12.462-4.979-19.136 1.078-0.228 2.157-0.471 3.237-0.688 1.156 6.558 2.12 13.21 2.982 19.558zM398.963 637.144l4.169 238.303 19.747-0.345-4.166-238.303-19.75 0.345zM399.425 634.501l0.345 19.752 159.306-2.786-0.345-19.752-159.306 2.786zM432.828 649.479c0-13.090-10.611-23.703-23.703-23.703s-23.703 10.611-23.703 23.703c0 13.090 10.611 23.703 23.703 23.703s23.703-10.611 23.703-23.703zM334.396 379.939l74.069 61.431 12.607-15.202-56.31-49.457 46.101-58.036-15.2-12.609-61.27 73.874zM166.477 838.76l16.262-12.224c7.583 9.871 15.623 19.403 24.412 28.233l-14.46 14.308c-9.434-9.48-18.078-19.712-26.215-30.316zM130.677 776.574l18.727-7.956c4.855 11.463 10.433 22.634 16.88 33.286l-17.483 10.406c-6.916-11.44-12.909-23.43-18.124-35.736zM110.767 707.895l20.080-3.278c1.942 12.311 4.941 24.429 8.476 36.367l-19.46 5.931c-3.799-12.807-7.006-25.812-9.096-39.019zM907.15 653.823c-4.69 4.98-11.533 8.261-19.043 8.25h-121.319c0.236 1.112 0.365 2.262 0.365 3.443v28.933c0 9.13-7.402 16.532-16.532 16.532h-35.939c3.792-19.148 5.796-38.939 5.796-59.2 0-5.329-0.142-10.624-0.413-15.888h167.994c0.103-0.080 0.481-0.434 0.464-1.146v-671.419c0-0.548-0.197-0.877-0.361-1.057-0.044-0.045-0.080-0.073-0.102-0.087h-438.827c-0.103 0.080-0.482 0.435-0.464 1.143v386.995c-8.624-0.886-17.357-1.391-26.178-1.535v-385.459c0-7.308 2.823-14.098 7.548-19.071 4.691-4.98 11.533-8.263 19.048-8.252h438.96c7.493 0 14.323 3.282 19.003 8.25 4.725 4.974 7.551 11.764 7.551 19.073v671.418c0.001 7.311-2.825 14.101-7.551 19.077zM475.763 197.086h385.764c9.13 0 16.532 8.774 16.532 19.6v163.327c0 10.824-7.402 19.6-16.532 19.6h-275.954c-37.144-24.82-80.075-41.636-126.344-48.014v-134.915c0-10.824 7.401-19.599 16.532-19.599zM861.528 179.175h-385.764c-9.13 0-16.532-8.774-16.532-19.6v-163.33c0-10.824 7.402-19.6 16.532-19.6h385.764c9.13 0 16.532 8.774 16.532 19.6v163.33c0 10.825-7.402 19.6-16.532 19.6zM878.061 435.745v163.327c0 10.824-7.402 19.6-16.532 19.6h-142.857c-8.868-81.617-50.129-153.499-110.662-202.527h253.521c9.128 0 16.531 8.774 16.531 19.6z" />
<glyph unicode="&#xe904;" glyph-name="chevright" d="M732.973 447.102l-204.309-511.074h-237.667l204.309 512.861-204.309 511.074h237.667z" />
<glyph unicode="&#xe905;" glyph-name="Choice" d="M46.713 114.696c-25.8 0.016-46.684 20.903-46.696 46.697v0 738.441c0.013 25.795 20.903 46.683 46.696 46.692v0l738.439 0.005c25.796-0.017 46.685-20.897 46.693-46.696v0-142.26h-41.263l-0.004 142.26c-0.005 2.989-2.437 5.422-5.428 5.426v0h-738.439c-2.989-0.004-5.422-2.437-5.432-5.426v0l0.004-738.441c0.005-2.989 2.437-5.422 5.428-5.426v0l166.572-0.005v-41.266l-166.572-0.001zM997.908 740.040h-738.441c-14.394 0-26.063-11.669-26.063-26.063v-738.441c0-14.394 11.669-26.063 26.063-26.063h738.441c14.394 0 26.063 11.669 26.063 26.063v738.441c0 14.394-11.669 26.063-26.063 26.063zM868.5 369.689l-81.809 44.162 44.671 13.847c-33.697 84.935-116.586 145.097-213.535 145.064-63.491-0.012-120.785-25.677-162.405-67.27-41.6-41.631-67.263-98.918-67.273-162.407-0.044-114.554 83.939-209.535 193.55-226.848l-6.435-40.754c-129.485 20.443-228.342 132.438-228.383 267.601 0.012 149.645 121.294 270.927 270.943 270.945 115.501-0.038 214.090-72.259 253.070-174.081l39.59 12.272-41.987-82.531z" />
<glyph unicode="&#xe906;" glyph-name="colours" d="M901.539 959.985c-42.466 0-79.614-22.716-99.987-56.656l-106.637-107.794-58.001 57.454-114.981-116.081 62.401-61.812-532.998-538.785 15.013-14.851c-6.497-24.659-22.646-79.044-47.693-122.774l0.434-0.25c-1.749-1.088-3.408-2.369-4.918-3.888-5.706-5.668-8.302-13.352-8.26-20.604 0.037-9.66 4.144-19.082 11.464-26.441 7.364-7.315 16.778-11.424 26.441-11.465h0.152c7.21 0 14.814 2.592 20.455 8.258l-8.472 8.479 8.485-8.464c1.356 1.351 2.523 2.822 3.536 4.368l0.064-0.116c0.043 0.021 1.016 0.573 2.959 1.623 12.779 6.977 65.752 34.502 119.502 48.46l14.161-14.012 532.905 538.689 69.153-68.499 114.978 116.081-65.241 64.624 109.752 110.945c31.276 20.901 51.883 56.521 51.883 96.962 0 64.367-52.179 116.549-116.55 116.549zM47.476-38.763c-0.712-0.687-1.679-1.198-3.658-1.239-2.549-0.040-6.387 1.304-9.5 4.452-3.149 3.108-4.486 6.943-4.444 9.489 0.037 1.984 0.552 2.948 1.234 3.655 0.736 0.705 1.705 1.22 3.672 1.259 0.035 0.002 0.070 0.002 0.104 0.002 2.554 0 6.32-1.335 9.392-4.451 3.154-3.113 4.486-6.946 4.449-9.494-0.035-1.97-0.549-2.939-1.248-3.675zM70.45-23.031c-1.923 5.24-5.023 10.154-9.227 14.379-4.213 4.193-9.113 7.288-14.335 9.215 18.802 36.63 31.707 76.074 38.99 101.576l85.018-84.106c-42.057-12.509-80.548-30.863-100.447-41.065zM204.474 18.52l-6.162 6.093-0.11 0.507c-0.11-0.023-0.216-0.050-0.326-0.075l-104.996 103.87c0.085 0.367 0.146 0.62 0.154 0.649l-1.044 0.23-6.771 6.701 151.648 153.296 202.297-34.028-234.69-237.243zM459.774 276.594l-202.297 34.031 343.881 347.615 119.176-118.050-260.759-263.595zM68.038-51.441l-0.005 0.006c0 0 0 0 0 0l0.005-0.006z" />
<glyph unicode="&#xe907;" glyph-name="diesel" d="M984.984 175.435v450.467l-0.166 1.161c-0.103 0.636-4.537 31.544-17.173 68.6-6.338 18.537-14.72 38.636-25.925 57.381-11.219 18.712-25.261 36.223-43.504 48.927l-0.866-1.249-34.51 34.508-9.529-9.529 36.229-36.229-10.098-14.543c12.108-8.376 22.968-20.982 32.156-35.712-5.902-18.929-33.47-113.392-1.543-130.524 18.693-10.030 32.816-15.857 42.015-19.132v-414.734l0.004-0.047v-0.16c0.092-0.977-0.437-10.623-4.964-17.943-2.254-3.725-5.191-6.998-9.915-9.663-4.738-2.63-11.6-4.801-22.375-4.821-11.699 0.016-19.465 2.279-24.924 5.076-8.074 4.207-11.912 9.949-14.28 15.236-1.137 2.607-1.78 5.014-2.105 6.615-0.142 0.692-0.223 1.236-0.271 1.577 0.027 5.234 0.162 33.477 0.166 71.26-0.004 45.703-0.199 105.346-1.040 155.203-0.348 22.494-5.875 41.305-15.093 56.136-13.865 22.38-35.085 34.73-54.99 41.26-5.211 1.712-10.369 3.058-15.388 4.122v440.506c0 11.483-9.309 20.791-20.791 20.791h-618.539c-11.483 0-20.791-9.309-20.791-20.791l-0.29-880.16h-66.705c-11.483 0-20.791-9.309-20.791-20.791l0.29-81.432c0-11.483 9.309-20.791 20.791-20.791h793.531c11.483 0 20.791 9.309 20.791 20.791l-0.291 81.432c0 11.483-9.309 20.791-20.791 20.791h-66.705l0.291 405.781c6.784-1.854 13.498-4.361 19.584-7.745 9.188-5.056 16.988-11.738 22.804-21.1 5.784-9.383 9.841-21.762 10.168-39.356 0.831-49.516 1.029-109.051 1.029-154.652 0-41.846-0.166-71.88-0.166-71.95l-0.004-0.574 0.031-0.485c0.173-1.658 0.92-15.416 11.089-30.438 5.087-7.446 12.747-15.048 23.386-20.504 10.626-5.49 23.976-8.748 39.999-8.733h0.129c15.255 0 28.111 3.288 38.307 9.010 15.469 8.603 23.688 22.099 27.54 33.066 3.929 11.075 4.176 20.121 4.2 23.276-0.004 0.425-0.007 0.7-0.007 0.812zM910.487 633.384c-9.096 14.294 10.829 89.229 10.829 89.229 21.657-29.887 30.754-111.753 30.754-111.753s-32.486 8.23-41.582 22.524zM555.603 170.897c-33.335-27.699-84.042-40.847-146.019-40.847-37.091 0-63.383 2.347-81.224 4.696v310.82c26.292 4.226 60.566 6.572 96.718 6.572 60.098 0 99.067-10.798 129.586-33.806 32.865-24.413 53.525-63.382 53.525-119.254 0-60.566-22.066-102.353-52.588-128.177zM714.128 594.4c0-11.483-9.309-20.791-20.791-20.791h-473.001c-11.483 0-20.791 9.309-20.791 20.791v258.157c0 11.483 9.309 20.791 20.791 20.791h473.001c11.483 0 20.791-9.309 20.791-20.791v-258.157zM432.593 397.205c-15.964 0-26.292-1.41-32.396-2.82v-207.056c6.103-1.409 15.963-1.409 24.883-1.409 64.792-0.47 107.049 35.214 107.049 110.805 0.471 65.733-38.031 100.478-99.536 100.478z" />
<glyph unicode="&#xe908;" glyph-name="elec" d="M813.615 477.774l-292.012 40.344 149.845 441.858-461.064-575.699 259.348-23.692-209.403-424.568zM598.087 885.653c-29.891 6.319-54.305 8.042-86.094 8.042v0c-123.124-0.008-234.453-49.859-315.157-130.54v0c-80.681-80.703-130.532-192.028-130.54-315.154v0c-0.007-171.113 96.412-319.614 237.885-394.357v0l-14.358-27.182c-151.187 79.826-254.26 238.657-254.268 421.539v0c0.008 263.139 213.305 476.427 476.438 476.438v0c33.945 0 74.919-4.764 106.866-11.529l-20.772-27.256zM347.181 1.253l21.773 24.418c45.182-15.432 92.602-23.371 143.043-23.371v0c123.118 0.008 234.451 49.861 315.157 130.543v0c80.679 80.703 130.535 192.028 130.535 315.15v0c0.030 194.975-130.011 362.398-304.369 422.891l0.483 0.722 8.643 28.575c186.423-64.649 325.965-243.766 325.991-452.188v0c-0.016-263.13-213.308-476.422-476.439-476.431v0c-53.855 0-105.66 8.993-153.956 25.49l-10.861 4.2z" />
<glyph unicode="&#xe909;" glyph-name="electricconsum" d="M511.995 959.973c-282.756-0.010-511.96-229.215-511.97-511.977 0-23.538 1.598-46.704 4.676-69.398 33.874-249.931 248.075-442.564 507.295-442.573 259.223 0.009 473.424 192.642 507.301 442.573 3.076 22.694 4.672 45.86 4.676 69.398-0.014 282.761-229.215 511.967-511.977 511.977zM325.534 123.109l-59.754 83.012-16.102-17.892v-65.119h-31.126v254.040h31.129v-160.295h0.717c4.292 6.083 10.375 13.598 15.385 19.68l50.808 59.756h37.928l-66.91-71.203 76.212-101.976h-38.285zM591.745 123.109h-32.561l-30.413 125.589c-7.513 30.771-12.524 54.386-15.742 78.717h-0.715c-4.295-23.973-9.661-47.589-18.605-78.717l-34.35-125.589h-32.561l-61.186 241.162h32.918l28.624-122.012c7.156-30.056 13.597-60.113 17.89-83.371h0.715c3.937 23.973 11.45 52.598 19.68 83.725l32.203 121.655h32.558l29.342-122.37c6.799-28.624 13.239-57.249 16.816-82.653h0.715c5.010 26.475 11.809 53.313 19.321 83.367l31.845 121.655h31.845l-68.34-241.158zM834.709 123.109h-31.486v99.47c0 27.91-10.377 51.525-40.076 51.525-20.396 0-36.497-14.314-42.221-31.489-1.788-4.292-2.146-8.943-2.146-15.026v-104.479h-31.486v254.040h31.486v-108.056h0.715c5.012 8.946 12.882 16.817 22.541 22.184 9.303 5.369 20.396 8.946 32.202 8.946 23.259 0 60.47-14.312 60.47-74.066v-103.048zM992.971 388.875c-132.269 49.374-299.335 78.848-480.972 78.848-6.597 0-13.17-0.051-19.727-0.128l-217.531 200.861 115.636-205.225c-134.32-9.986-257.217-36.23-359.352-74.358-2.357 19.378-3.595 39.103-3.596 59.124 0.007 131.521 52.367 250.662 137.398 338.004l24.989-28.735 20.676 17.98-25.982 29.88c80.673 74.013 186.38 121.039 303.047 126.834l0.815-35.838 27.391 0.622-0.812 35.792c132.68-0.799 252.604-54.825 339.692-141.891 3.679-3.681 7.277-7.441 10.837-11.235l-28.942-25.169 17.98-20.676 29.141 25.34c70.481-84.165 112.906-192.52 112.911-310.903-0.001-20.019-1.24-39.743-3.595-59.123z" />
<glyph unicode="&#xe90a;" glyph-name="fb" d="M1023.976 444.867c0 284.485-229.213 515.102-511.912 515.102-282.827-0.061-512.039-230.617-512.039-515.165 0-257.016 187.22-470.103 431.928-508.787v359.942h-129.917v148.844h130.037v113.576c0 129.072 76.458 200.345 193.344 200.345 56.118 0 114.604-10.033 114.604-10.033v-126.73h-64.485c-63.614 0-83.424-39.71-83.424-80.483v-96.614h141.91l-22.617-148.847h-119.359v-359.938c244.713 38.62 431.928 251.709 431.928 508.787z" />
<glyph unicode="&#xe90b;" glyph-name="GPS" d="M511.99 959.979c-198.675 0-359.728-161.056-359.728-359.728 0-62.83 16.109-121.9 44.421-173.303 61.21-111.133 315.306-490.921 315.306-490.921s248.948 376.552 311.235 483.727c30.837 53.055 48.496 114.715 48.496 180.498 0 198.675-161.058 359.728-359.731 359.728zM511.99 488.367c-93.471 0-169.244 75.772-169.244 169.244s75.772 169.244 169.244 169.244c93.468 0 169.24-75.772 169.24-169.244s-75.772-169.244-169.24-169.244z" />
<glyph unicode="&#xe90c;" glyph-name="green" d="M949.929 713.369c1.572-20.671 3.317-41.341 2.018-62.010 28.632-61.833 44.633-130.701 44.636-203.356-0.006-133.856-54.217-254.914-141.927-342.647-87.737-87.713-208.794-141.924-342.652-141.93-133.856 0.006-254.914 54.217-342.646 141.93-87.715 87.733-141.924 208.79-141.932 342.647 0.007 133.857 54.217 254.914 141.932 342.65 87.732 87.715 208.789 141.924 342.646 141.932 78.998-0.003 153.531-18.898 219.395-52.405 17.171 1.771 40.285-0.508 57.457-1.422-78.575 49.096-177.37 81.226-276.852 81.231-282.76-0.010-511.968-229.219-511.979-511.985 0.010-282.764 229.217-511.971 511.979-511.979 282.765 0.009 511.972 229.216 511.985 511.979-0.005 97.154-27.067 187.982-74.060 265.366zM586.614 528.050l6.823 71.497 12.316-51.72 273.553 285.874c0 0-356.083 96.056-572.669-115.022-216.588-211.081-81.68-588.274-81.68-588.274l62.593 69.174 21.674 243.332 21.672-183.242 124.129 132.009-3.94 99.503 27.583-75.855 107.948 112.725zM619.855 506.541l56.964 7.549-39.61 12.491 256.79 296.528c0 0 128.832-345.578-61.143-580.9-189.971-235.317-578.098-136.159-578.098-136.159l63.040 68.766 240.251 44.267-184.461 4.496 119.868 135.892 99.429 5.355-78.095 20.394 105.064 121.322z" />
<glyph unicode="&#xe90d;" glyph-name="insurance" d="M512.006 959.978c17.691 0 32.004-14.315 32.004-32.004v-32.867c263.99-14.383 479.984-205.188 479.984-447.113 0 0 0-32.005-32.005-32.005-9.497 0-22.49 9.249-22.49 9.249l-0.252 0.254-1.624 1.495c-10.995 9.572-22.883 17.999-35.507 25.256-30.378 17.744-64.867 27.37-100.115 27.754-40.881 0-75.372-13.637-100.119-27.754-12.637-7.257-24.507-15.684-35.507-25.256l-1.62-1.495-0.129-0.129c0 0-13.127-9.375-22.628-9.375-9.497 0-22.49 9.249-22.49 9.249l-0.254 0.254-1.624 1.495c-10.999 9.572-22.88 17.999-35.503 25.256-21.118 12.124-44.116 20.622-68.115 24.93v-383.672l-0.323-5.313c-1.714-24.561-8.179-48.437-19.092-70.554-11.056-22.689-27.903-42.128-48.807-56.261-23.94-15.866-54.214-25.367-91.78-25.367-37.561 0-67.902 9.501-91.776 25.367-20.938 14.131-37.751 33.572-48.812 56.261-11.658 23.684-18.252 49.494-19.345 75.867v1.619l-0.061 0.568v0.196c0 0 0 0.112 32 0.112h-32v32.001c0 17.69 14.31 32 32 32 17.688 0 31.995-14.308 31.995-32v-32.371l0.191-2.81c1.123-16.192 5.374-31.944 12.5-46.444 6.058-12.242 14.717-23.494 27.062-31.747 12.156-8.121 29.808-14.622 56.246-14.622 26.439 0 44.094 6.501 56.251 14.622 12.34 8.254 21 19.505 27.159 31.747 7.497 15.375 11.804 32.129 12.585 49.254v381.544c-23.963-4.307-46.993-12.806-68.086-24.93-13.251-7.625-25.687-16.564-37.129-26.752l-0.247-0.254c0 0-12.938-9.249-22.533-9.249-9.526 0-22.529 9.249-22.529 9.249l-0.247 0.254c-11.442 10.188-23.879 19.125-37.129 26.752-30.374 17.744-64.874 27.37-100.091 27.754-40.841 0-75.308-13.637-100.089-27.754-13.251-7.625-25.687-16.564-37.123-26.752l-0.253-0.254c0 0-12.939-9.249-22.532-9.249-31.997 0-31.997 32.005-31.997 32.005 0 241.925 215.993 432.732 479.981 447.113v32.867c0 17.69 14.314 32.005 32.001 32.005z" />
<glyph unicode="&#xe90e;" glyph-name="leather" d="M508.059-36.66c0 0-0.091 0.179-0.34 0.653v0c-0.253 0.482-0.648 1.209-1.171 2.165v0c-1.043 1.909-2.613 4.71-4.667 8.202v0c-4.104 6.981-10.132 16.714-17.71 27.484v0c-15.112 21.548-36.631 47.212-60.352 63.415v0c-15.84 10.873-32.216 17.372-48.28 17.343v0c-0.371 0-0.621 0-0.897-0.006v0c-69.116-0.842-144.55-34.281-156.45-39.998v0c-1.163-0.545-1.678-0.796-1.678-0.796v0l-10.031-4.887-115.535 137.812 11.946 9.054c0 0 0.465 0.355 1.528 1.194v0c1.066 0.84 2.654 2.11 4.7 3.793v0c4.085 3.357 9.974 8.352 17.060 14.79v0c14.169 12.86 33.118 31.489 51.971 54.246v0c37.863 45.537 74.533 107.457 74.343 171.566v0c-0.055 67.169-17.199 115.325-42.258 151.228v0c-25.096 35.867-58.593 59.723-92.485 76.247v0l-10.492 5.114 39.34 151.741 12.275-1.347c0.006 0 0.186-0.026 0.847-0.080v0c0.661-0.057 1.693-0.137 3.067-0.219v0c2.741-0.16 6.833-0.331 12.022-0.331v0c22.052-0.026 63.822 3.123 106.203 22.040v0c42.422 19.024 85.505 53.029 113.006 116.945v0l3.696 8.622 237.987 0.651 3.253-9.725c0 0 0.005-0.001 0.006-0.012v0c0.007-0.026 0.027-0.071 0.051-0.138v0c0.057-0.16 0.16-0.45 0.317-0.853v0c0.312-0.811 0.827-2.084 1.57-3.762v0c1.482-3.351 3.885-8.302 7.423-14.334v0c7.071-12.062 18.662-28.409 36.555-44.973v0c35.841-33.048 96.566-67.483 199.661-70.184v0l10.858-0.27 37.666-150.674-10.986-4.863c0 0-0.031-0.015-0.26-0.121v0c-0.232-0.104-0.601-0.276-1.104-0.516v0c-1.006-0.482-2.529-1.227-4.508-2.244v0c-3.942-2.039-9.686-5.171-16.605-9.429v0c-13.845-8.513-32.407-21.539-50.888-39.287v0c-37.034-35.669-73.376-89.237-73.977-165.067v0c-0.007-0.59-0.014-1.1-0.014-1.533v0c-0.043-61.854 27.528-116.517 60.225-159.748v0c32.667-43.235 69.869-74.365 87.63-89.44v0l10.087-8.572-108.186-148.666-11.494 7.937c-0.065 0.044-0.182 0.126-0.356 0.233v0c-0.34 0.232-0.897 0.588-1.659 1.063v0c-1.517 0.949-3.856 2.351-6.959 4.058v0c-6.201 3.422-15.462 8.064-27.311 12.714v0c-23.718 9.311-57.77 18.655-98.768 18.647v0c-0.679 0-1.239 0-1.677-0.006v0h-0.16c-28.192-0.144-54.382-13.618-76.837-32.407v0c-22.381-18.688-40.476-42.307-51.941-59.986v0c-7.601-11.645-12.51-21.23-13.382-23.435v0l-11.804-28.376-14.070 27.326zM439.971 88.804c18.918-13 35.348-29.765 49.088-46.316v0c13.14-15.863 23.81-31.578 31.396-43.697v0c4.739 7.575 10.685 16.362 17.765 25.626v0c17.103 22.321 40.676 47.543 70.35 64.814v0c19.761 11.471 42.477 19.364 67.334 19.533v0-0.003c0.78 0.017 1.459 0.014 2.031 0.014v0c67.516-0.071 117.552-22.675 139.323-34.615v0l76.756 105.483c-20.153 17.343-52.534 46.613-81.844 85.381v0c-34.852 46.137-65.949 106.405-65.989 176.971v0c0 0.672 0.005 1.266 0.010 1.759v0c0.585 85.376 42.165 146.606 82.755 185.441v0c28.157 26.987 55.975 43.764 70.742 51.682v0l-26.742 106.966c-102.951 4.791-168.377 41.070-207.465 77.394v0c-28.491 26.409-43.149 52.474-49.522 66.141v0l-199.544-0.545c-30.523-65.498-78.12-102.921-123.78-123.148v0c-47.671-21.202-93.186-24.485-117.821-24.509v0c-2.408 0-4.616 0.032-6.61 0.084v0l-27.497-106.060c33.51-17.817 67.027-43.214 92.924-80.23v0c28.624-40.828 47.462-95.574 47.411-167.597v0c-0.196-75.074-41.149-141.636-80.906-189.784v0c-26.906-32.456-53.637-56.652-68.369-69.107v0l82.469-98.367c25.133 10.995 92.397 37.868 159.83 39.025v0c0.612 0.017 1.102 0.017 1.474 0.017v0c23.837-0.030 45.559-9.411 64.434-22.354v0z" />
<glyph unicode="&#xe90f;" glyph-name="loadheight" d="M511.679 959.965l-127.74-150.946 106.239-0.266v-721.419l-106.239 0.267 128.38-151.588 127.742 150.946-106.242 0.266v721.419l106.242-0.267z" />
<glyph unicode="&#xe910;" glyph-name="loadlength" d="M1023.996 448.319l-150.95 127.744-0.266-106.242h-721.438l0.266 106.242-151.592-128.384 150.951-127.746 0.264 106.245h721.44l-0.267-106.245z" />
<glyph unicode="&#xe911;" glyph-name="Love" d="M512.001 752.111l-45.869 47.192c-107.759 110.687-305.253 72.497-376.5-66.687-33.504-65.501-41.074-160.002 20.058-280.655 58.867-116.162 181.376-255.279 402.31-406.845 220.927 151.566 343.37 290.683 402.309 406.845 61.128 120.718 53.628 215.157 20.059 280.655-71.249 139.184-268.745 177.436-376.504 66.748l-45.864-47.252zM512.001-32.005c-981.312 648.436-302.124 1154.557-11.251 886.833 3.82-3.53 7.622-7.156 11.251-10.932 3.623 3.775 7.372 7.4 11.25 10.879 290.869 267.902 970.059-238.282-11.25-886.779z" />
<glyph unicode="&#xe912;" glyph-name="maintenance" d="M983.52 146.056l0.17 0.171-501.402 501.4c5.958 21.196 9.153 43.549 9.153 66.648 0 135.701-110.008 245.707-245.707 245.707-18.858 0-37.218-2.131-54.856-6.154l129.114-129.113-30.462-151.893-154.237-32.807-129.113 129.113c-4.021-17.639-6.154-35.998-6.154-54.855 0-135.701 110.008-245.707 245.707-245.707 23.101 0 45.453 3.195 66.647 9.157l501.572-501.233c22.009-24.806 54.11-40.456 89.878-40.456 66.357 0 120.145 53.789 120.145 120.144 0 35.768-15.648 67.868-40.456 89.878zM937.523 22.483c-22.002-22.001-57.13-22.858-80.171-2.591-0.946 0.832-1.882 1.688-2.787 2.591-22.908 22.911-22.908 60.050 0 82.96 22.909 22.908 60.050 22.908 82.958 0 0.905-0.905 1.761-1.842 2.592-2.787 20.268-23.041 19.411-58.17-2.592-80.174z" />
<glyph unicode="&#xe913;" glyph-name="manual" d="M0.033 447.991c0.009 282.765 229.218 511.975 511.979 511.985v0c282.765-0.010 511.972-229.219 511.985-511.983v0c-0.014-282.764-229.219-511.971-511.985-511.979v0c-282.764 0.007-511.971 229.213-511.979 511.977v0zM169.364 790.643c-87.715-87.737-141.924-208.794-141.932-342.65v0c0.006-133.856 54.217-254.914 141.932-342.647v0c87.733-87.713 208.79-141.924 342.646-141.93v0c133.857 0.006 254.915 54.217 342.652 141.93v0c87.711 87.733 141.922 208.79 141.927 342.647v0c-0.006 133.857-54.217 254.914-141.927 342.65v0c-87.737 87.715-208.794 141.924-342.652 141.932v0c-133.853-0.007-254.91-54.217-342.646-141.932v0zM844.523 679.468c0 19.382-15.713 35.093-35.093 35.093s-35.093-15.713-35.093-35.093c0-15.068 9.499-27.916 22.836-32.888v-197.436h-271.163v196.769c12.33 5.443 20.939 17.768 20.939 32.112 0 19.382-15.713 35.093-35.093 35.093-19.382 0-35.093-15.713-35.093-35.093 0-14.694 9.034-27.271 21.848-32.499v-196.383h-270.31v199.45c12.574 5.337 21.394 17.797 21.394 32.317 0 19.382-15.713 35.093-35.095 35.093s-35.093-15.713-35.093-35.093c0-14.52 8.819-26.98 21.394-32.317v-400.236c-12.574-5.336-21.394-17.797-21.394-32.317 0-19.382 15.713-35.095 35.093-35.095s35.093 15.713 35.093 35.095c0 14.52-8.819 26.979-21.392 32.317v173.382h270.309v-174.357c-12.561-5.343-21.367-17.795-21.367-32.305 0-19.381 15.713-35.093 35.093-35.093s35.093 15.713 35.093 35.093c0 14.53-8.832 26.998-21.42 32.328v174.333h296.855v1.015h1.708v225.049c11.801 5.654 19.953 17.706 19.953 31.665z" />
<glyph unicode="&#xe914;" glyph-name="MPG" d="M531.998 345.979c-13.222 0-23.312-1.046-28.534-2.436v-91.169c6.612-1.74 14.963-2.436 25.055-2.436 36.537 0 58.806 17.748 58.806 50.108 0.001 30.97-21.92 45.933-55.328 45.933zM511.987 959.979c-282.761-0.010-511.968-229.219-511.979-511.985 0-23.538 1.598-46.705 4.676-69.399 33.875-249.935 248.079-442.571 507.304-442.58 259.227 0.009 473.432 192.646 507.309 442.58 3.076 22.694 4.673 45.861 4.676 69.399-0.014 282.765-229.219 511.975-511.985 511.985zM396.977 133.713l-5.916 103c-1.741 32.708-3.827 72.028-3.48 101.26h-1.044c-8.003-27.49-17.746-57.068-29.576-89.083l-41.41-113.786h-22.966l-37.93 111.7c-11.135 33.058-20.53 63.332-27.143 91.17h-0.695c-0.695-29.232-2.435-68.552-4.524-103.695l-6.263-100.563h-28.881l16.354 234.535h38.625l40.017-113.441c9.744-28.881 17.746-54.632 23.662-78.99h1.046c5.914 23.661 14.267 49.411 24.704 78.99l41.757 113.441h38.625l14.616-234.535h-29.579zM599.505 251.33c-16.005-17.051-42.106-25.75-71.682-25.75-9.046 0-17.399 0.347-24.36 2.087v-93.953h-30.273v231.752c14.614 2.436 33.754 4.523 58.111 4.523 29.926 0 51.848-6.959 65.768-19.486 12.876-11.137 20.531-28.186 20.531-49.065 0.001-21.227-6.263-37.929-18.094-50.108zM836.83 144.152c-13.571-4.871-40.365-12.873-72.031-12.873-35.492 0-64.722 9.044-87.69 30.97-20.182 19.487-32.709 50.803-32.709 87.341 0.349 69.942 48.367 121.095 127.008 121.095 27.143 0 48.37-5.916 58.462-10.786l-7.309-24.709c-12.527 5.568-28.188 10.091-51.848 10.091-57.068 0-94.299-35.492-94.299-94.3 0-59.507 35.842-94.65 90.469-94.65 19.836 0 33.407 2.785 40.365 6.263v69.943h-47.672v24.359h77.25v-112.745zM992.971 388.872c-104.842 39.137-231.563 65.751-370.058 75.114l163.092 176.628-307.438-173.228c-168.685-3.378-323.443-32.184-447.558-78.514-2.357 19.378-3.595 39.104-3.596 59.125 0.007 131.523 52.368 250.666 137.4 338.009l24.99-28.736 20.676 17.98-25.982 29.881c80.672 74.014 186.383 121.041 303.050 126.836l0.816-35.839 27.392 0.622-0.812 35.793c132.683-0.799 252.609-54.826 339.697-141.894 3.679-3.681 7.277-7.441 10.837-11.236l-28.942-25.17 17.98-20.676 29.142 25.34c70.482-84.166 112.908-192.523 112.913-310.908-0.001-20.021-1.241-39.746-3.595-59.125z" />
<glyph unicode="&#xe915;" glyph-name="optionalextras" d="M512.002 127.443l-316.423-166.355 60.432 352.35-255.99 249.529 353.77 51.404 158.211 320.569 158.212-320.566 353.778-51.404-255.997-249.535 60.438-352.35-316.431 166.356zM783.771 22.561l-51.903 302.612 219.857 214.311-303.841 44.151-135.88 275.327-135.879-275.327-303.841-44.151 219.859-214.311-51.901-302.612 271.762 142.875 271.765-142.875z" />
<glyph unicode="&#xe916;" glyph-name="parkingsensors" d="M832.666 213.488c-0.846 23.329-20 41.966-43.533 41.979l-36.824-0.114-197.946 665.567c-0.282 0.718-3.068 8.729-9.444 17.713-3.215 4.484-7.366 9.264-12.928 13.317-5.526 4.028-12.697 7.305-21.015 7.933-0.839 0.069-1.702 0.104-2.558 0.099-8.897 0.021-16.532-3.666-22.050-8.095-8.348-6.737-13.343-15.123-16.821-21.846-3.412-6.741-5.077-11.95-5.232-12.42l-0.044-0.13-193.31-663.588-32.83-0.104c-7.116-0.008-13.57-2.308-19.058-5.533-8.243-4.911-14.747-11.944-19.624-19.859-4.508-7.47-7.683-15.752-8.11-24.728l-49.834-222.596v-1.516c0.008-24.064 19.504-43.555 43.566-43.565h653.847c24.067 0.008 43.554 19.501 43.565 43.565v1.435l-49.818 232.488zM501.359 378.465h0.25c50.473-0.001 109.107 13.161 170.137 51.726l89.5-300.962c-29.23-20.839-141.516-93.396-271.093-93.129-73.359 0.114-152.184 22.47-227.738 90.512l85.4 293.176c25.003-14.569 80.548-41.216 153.545-41.322zM355.733 446.976l41.186 141.395c27.228-9.506 61.641-17.397 101.122-17.4h0.14c37.515-0.001 79.552 7.233 123.732 26.803l41.698-140.228c-59.296-39.166-114.65-51.647-162.253-51.696-45.139-0.008-83.354 11.415-110.222 22.864-13.424 5.717-23.999 11.432-31.129 15.658-1.61 0.955-3.019 1.819-4.274 2.603zM490.44 909.428c0.375 1.179 3.047 8.411 7.082 14.328 1.984 2.974 4.295 5.541 6.267 6.988 2.042 1.476 3.299 1.837 4.623 1.857 0.137 0 0.282-0.006 0.427-0.021 2.494-0.202 4.654-1.074 7.067-2.796 3.57-2.532 7.096-7.166 9.371-11.209 1.149-2.009 2.019-3.835 2.57-5.093 0.275-0.626 0.472-1.115 0.588-1.41 0.008-0.024 0.017-0.044 0.025-0.065l85.561-287.725c-41.839-19.099-81.009-25.916-115.985-25.928-36.44-0.007-68.365 7.44-93.456 16.335l85.857 294.739zM838.92-36.609h-653.848c-8.502 0.008-15.463 6.562-16.132 14.894l49.735 222.147v1.514c-0.176 3.666 2.621 11.168 7.233 16.501 2.242 2.7 4.808 4.907 7.070 6.225 2.284 1.352 4.106 1.761 5.194 1.747l24.805 0.078-31.59-108.444 6.131-5.75c82.046-77.104 171.137-103.586 252.127-103.588h0.502c163.536 0.352 294.246 103.818 295.401 104.465l7.328 5.751-32.436 109.065 28.725 0.086c8.893-0.017 16.127-7.253 16.14-16.181v-1.435l49.741-232.126c-0.637-8.358-7.614-14.94-16.127-14.949z" />
<glyph unicode="&#xe917;" glyph-name="payload" d="M891.284 697.858c0 16.287-13.202 29.491-29.49 29.491l-201.32-0.466c9.836 21.047 15.366 44.511 15.366 69.277 0 90.484-73.352 163.836-163.84 163.836-90.481 0-163.835-73.352-163.835-163.836 0-25.033 5.635-48.743 15.676-69.962l-210.64-0.488c-16.288 0-29.491-13.203-29.491-29.491l-121.241-730.712c0-16.286 13.204-29.491 29.491-29.491h960.082c16.288 0 29.493 13.204 29.493 29.491l-130.251 732.35zM391.583 796.979c0 66.958 54.279 121.238 121.239 121.238 66.957 0 121.236-54.279 121.236-121.238 0-26.176-8.322-50.393-22.426-70.207l-197.298-0.457c-14.3 19.898-22.751 44.288-22.751 70.664zM436.86 143.423l-114.276 170.385-32.944-38.096v-132.29h-44.781v346.945h44.781v-167.292h1.548c9.264 13.381 18.53 25.737 27.284 37.059l106.038 130.233h55.593l-125.603-147.219 135.383-199.725h-53.022zM779.145 158.866c-20.072-7.201-59.71-19.046-106.553-19.046-52.507 0-95.742 13.386-129.717 45.811-29.855 28.832-48.388 75.157-48.388 129.206 0.514 103.464 71.552 179.131 187.884 179.131 40.152 0 71.549-8.749 86.478-15.954l-10.81-36.55c-18.53 8.238-41.695 14.929-76.697 14.929-84.422 0-139.498-52.503-139.498-139.497 0-88.025 53.017-140.017 133.836-140.017 29.343 0 49.414 4.119 59.71 9.27v103.464h-70.52v36.032h114.275v-166.78z" />
<glyph unicode="&#xe918;" glyph-name="pencil" d="M1012.583 778.807l-169.958 169.961c-14.952 14.952-39.194 14.952-54.146 0l-97.596-97.595 224.106-224.103 97.595 97.593c14.951 14.954 14.947 39.197 0 54.145zM97.232 257.526l580.287 580.287 41.183-41.183-580.287-580.287-41.183 41.183zM149.547 205.211l580.287 580.287 117.986-117.986-580.287-580.287-117.986 117.986zM321.324 33.415l-42.668 42.668 580.285 580.285 42.668-42.668-580.285-580.285zM310.208 22.289l-224.103 224.106-64.016-245.422 42.998-42.998zM56.7-47.002l-38.772 38.775-17.718-55.749z" />
<glyph unicode="&#xe919;" glyph-name="petrol" d="M984.994 175.442v450.467l-0.166 1.161c-0.104 0.636-4.537 31.544-17.176 68.6-6.336 18.537-14.72 38.636-25.923 57.381-11.22 18.712-25.263 36.223-43.504 48.927l-0.868-1.249-34.508 34.508-9.529-9.529 36.228-36.229-10.098-14.543c12.109-8.376 22.968-20.982 32.156-35.712-5.902-18.929-33.469-113.392-1.542-130.524 18.692-10.030 32.816-15.857 42.014-19.132v-414.734l0.004-0.047v-0.16c0.093-0.977-0.437-10.623-4.964-17.943-2.254-3.725-5.191-6.998-9.914-9.663-4.739-2.63-11.6-4.801-22.375-4.821-11.7 0.016-19.466 2.279-24.924 5.076-8.076 4.207-11.913 9.949-14.282 15.236-1.137 2.607-1.78 5.014-2.103 6.615-0.142 0.692-0.225 1.236-0.271 1.577 0.026 5.234 0.161 33.477 0.165 71.26-0.004 45.703-0.198 105.346-1.038 155.203-0.348 22.494-5.877 41.305-15.094 56.136-13.862 22.38-35.084 34.73-54.987 41.26-5.211 1.712-10.37 3.058-15.389 4.122v440.506c0 11.483-9.309 20.791-20.791 20.791h-618.537c-11.483 0-20.791-9.309-20.791-20.791l-0.29-880.16h-66.705c-11.483 0-20.791-9.309-20.791-20.791l0.29-81.432c0-11.483 9.309-20.791 20.791-20.791h793.53c11.483 0 20.791 9.309 20.791 20.791l-0.29 81.432c0 11.483-9.309 20.791-20.791 20.791h-66.705l0.29 405.781c6.787-1.854 13.498-4.361 19.585-7.745 9.187-5.056 16.988-11.737 22.804-21.098 5.781-9.383 9.841-21.762 10.167-39.356 0.831-49.516 1.031-109.051 1.031-154.652 0-41.846-0.166-71.88-0.166-71.95l-0.004-0.574 0.030-0.485c0.173-1.658 0.92-15.416 11.090-30.438 5.085-7.446 12.747-15.048 23.386-20.504 10.626-5.49 23.973-8.748 39.999-8.733h0.126c15.258 0 28.113 3.288 38.307 9.010 15.47 8.603 23.688 22.099 27.542 33.066 3.928 11.075 4.174 20.121 4.2 23.276-0.004 0.422-0.007 0.698-0.007 0.811zM910.496 633.391c-9.096 14.294 10.829 89.229 10.829 89.229 21.657-29.887 30.754-111.753 30.754-111.753s-32.486 8.23-41.582 22.524zM714.136 594.407c0-11.483-9.309-20.791-20.791-20.791h-472.999c-11.483 0-20.791 9.309-20.791 20.791v258.157c0 11.483 9.309 20.791 20.791 20.791h472.999c11.483 0 20.791-9.309 20.791-20.791v-258.157z" />
<glyph unicode="&#xe91a;" glyph-name="PHEV" d="M1023.972 191.696v423.598l-0.157 1.092c-0.097 0.598-4.267 29.663-16.149 64.509-5.96 17.432-13.842 36.331-24.379 53.959-10.549 17.596-23.754 34.063-40.91 46.009l-0.815-1.175-32.452 32.45-8.961-8.961 34.068-34.068-9.496-13.676c11.386-7.876 21.598-19.731 30.238-33.582-5.55-17.8-31.474-106.629-1.451-122.74 17.578-9.432 30.859-14.912 39.51-17.991v-389.999l0.004-0.045v-0.15c0.087-0.919-0.411-9.989-4.668-16.873-2.119-3.503-4.881-6.581-9.324-9.087-4.455-2.473-10.908-4.515-21.040-4.534-11.001 0.015-18.304 2.144-23.437 4.773-7.593 3.956-11.201 9.356-13.429 14.327-1.069 2.452-1.674 4.715-1.979 6.22-0.134 0.65-0.21 1.162-0.255 1.483 0.025 4.922 0.153 31.48 0.157 67.010-0.004 42.977-0.187 99.063-0.978 145.946-0.327 21.152-5.524 38.84-14.192 52.788-13.038 21.046-32.993 32.659-51.71 38.799-4.901 1.61-9.75 2.875-14.47 3.876v414.234c0 10.798-8.753 19.551-19.551 19.551h-581.649c-10.798 0-19.551-8.753-19.551-19.551l-0.13-393.89c-3.559-0.848-7.174-1.838-10.823-3.037-18.717-6.14-38.672-17.755-51.71-38.799-8.668-13.948-13.865-31.636-14.192-52.788-0.789-46.883-0.974-102.969-0.978-145.946 0.004-35.529 0.13-62.086 0.157-67.010-0.045-0.321-0.121-0.832-0.255-1.483-0.307-1.507-0.911-3.769-1.979-6.22-2.228-4.973-5.836-10.371-13.429-14.327-5.132-2.628-12.436-4.759-23.437-4.773-10.132 0.022-16.585 2.062-21.040 4.534-4.444 2.506-7.204 5.584-9.324 9.087-4.258 6.885-4.754 15.954-4.668 16.873v0.15l0.004 0.045v364.413c21.112 5.476 36.602 22.971 36.707 43.798 0 0.266-0.004 0.53-0.006 0.796 0.15 0.374 0.237 0.778 0.238 1.198l0.199 40.259c0.010 1.981-1.763 3.597-3.959 3.607l-16.459 0.081 0.204 41.12c0.015 2.77-2.217 5.025-4.988 5.038l-2.785 0.013c-2.77 0.015-5.025-2.219-5.039-4.988l-0.204-41.12-37.114 0.185 0.205 41.117c0.013 2.77-2.221 5.025-4.991 5.039l-2.785 0.013c-2.768 0.013-5.025-2.219-5.039-4.988l-0.204-41.117-14.912 0.074c-2.196 0.011-3.985-1.587-3.996-3.567l-0.2-40.259c-0.001-0.42 0.080-0.822 0.225-1.199-0.005-0.266-0.013-0.53-0.015-0.796-0.099-20.058 14.103-37.166 33.96-43.482v-364.662c0-0.106-0.004-0.367-0.006-0.766 0.023-2.966 0.255-11.474 3.95-21.888 3.621-10.311 11.351-23.002 25.898-31.093 9.588-5.38 21.677-8.472 36.022-8.472h0.121c15.067-0.013 27.621 3.050 37.613 8.213 10.005 5.131 17.21 12.278 21.991 19.281 9.562 14.126 10.266 27.064 10.427 28.623l0.029 0.456-0.004 0.54c0 0.065-0.157 28.308-0.157 67.659 0 42.879 0.185 98.866 0.967 145.428 0.308 16.545 4.124 28.185 9.562 37.007 5.469 8.803 12.805 15.087 21.444 19.841 4.622 2.571 9.641 4.558 14.76 6.161l-0.132-401.642h-62.727c-10.798 0-19.551-8.753-19.551-19.551l0.272-76.575c0-10.798 8.753-19.551 19.551-19.551h746.204c10.798 0 19.551 8.753 19.551 19.551l-0.274 76.575c0 10.798-8.753 19.551-19.551 19.551h-62.727l0.274 381.58c6.38-1.744 12.693-4.101 18.416-7.283 8.64-4.754 15.974-11.037 21.444-19.841 5.439-8.823 9.254-20.463 9.562-37.007 0.782-46.563 0.967-102.547 0.967-145.428 0-39.351-0.157-67.593-0.157-67.659l-0.004-0.54 0.029-0.456c0.163-1.559 0.866-14.497 10.427-28.623 4.783-7.002 11.987-14.15 21.991-19.281 9.992-5.163 22.546-8.227 37.613-8.213h0.121c14.345 0 26.435 3.092 36.022 8.472 14.546 8.090 22.275 20.781 25.898 31.093 3.695 10.415 3.927 18.921 3.95 21.888 0 0.401-0.004 0.659-0.004 0.768zM953.917 622.331c-8.554 13.441 10.183 83.907 10.183 83.907 20.366-28.105 28.919-105.088 28.919-105.088s-30.549 7.739-39.102 21.18zM421.102 79.408l84.025 170.364-104.068 9.507 185.011 231.011-60.126-177.303 117.173-16.19-222.016-217.388zM769.27 585.673c0-10.798-8.753-19.551-19.551-19.551h-444.79c-10.798 0-19.551 8.753-19.551 19.551v242.76c0 10.798 8.753 19.551 19.551 19.551h444.79c10.798 0 19.551-8.753 19.551-19.551v-242.76z" />
<glyph unicode="&#xe91b;" glyph-name="phone" d="M266.875 748.17c27.325 27.3 71.596 27.321 98.913 0 2.074-2.054 3.996-4.243 5.794-6.533l71.905-92.435c13.187-16.949 17.807-39.043 12.646-59.886l-60.141-81.363c-2.344-9.229 19.007-46.888 25.74-53.641l98.48-98.461c6.736-6.732 52.221-30.285 61.501-27.939l71.612 64.194c20.861 5.159 42.936 0.551 59.882-12.646l92.46-71.898c33.188-25.841 36.244-74.963 6.493-104.673l-41.414-41.405c-29.67-29.669-73.971-42.708-115.305-28.186-105.766 37.266-201.811 97.778-280.962 177.16-79.372 79.181-139.966 175.197-177.152 280.955-14.519 41.274-1.483 85.64 28.178 115.311l41.416 41.449h-0.043zM0.027 447.993c0.010 282.765 229.219 511.975 511.979 511.985v0c282.765-0.010 511.972-229.219 511.985-511.983v0c-0.014-282.764-229.219-511.971-511.985-511.979v0c-282.763 0.007-511.968 229.213-511.979 511.977v0zM169.361 790.645c-87.715-87.737-141.924-208.794-141.932-342.65v0c0.007-133.856 54.217-254.914 141.932-342.647v0c87.732-87.713 208.789-141.924 342.646-141.93v0c133.857 0.006 254.915 54.217 342.652 141.93v0c87.711 87.733 141.922 208.79 141.927 342.647v0c-0.006 133.857-54.217 254.914-141.927 342.65v0c-87.737 87.715-208.794 141.924-342.652 141.932v0c-133.856-0.007-254.914-54.218-342.646-141.932v0z" />
<glyph unicode="&#xe91c;" glyph-name="plug" d="M682.51 555.362c-2.599 7.517-11.461 11.276-19.792 8.398l-62.439-21.58-53.915 155.998c-3.63 10.506-15.086 16.079-25.593 12.446l-10.569-3.652c-10.506-3.63-16.075-15.088-12.445-25.594l53.912-155.998-140.803-48.662-53.915 155.996c-3.631 10.506-15.088 16.079-25.596 12.446l-10.568-3.654c-10.504-3.629-16.079-15.088-12.446-25.594l53.912-155.998-56.572-19.548c-8.332-2.882-12.979-11.309-10.38-18.826l52.787-152.734c0.552-1.596 1.399-3.010 2.449-4.241 0.329-1.010 0.651-2.022 1-3.032 33.194-96.044 146.409-144.081 252.867-107.285 106.464 36.791 165.851 144.484 132.66 240.528-0.346 1.007-0.715 2.005-1.082 3 0.068 1.616-0.141 3.253-0.69 4.85l-52.783 152.737zM852.739 66.697l-0.001 0.004-0.001-0.004h0.004zM511.989 959.978c-282.758-0.012-511.959-229.213-511.973-511.973 0.015-282.756 229.208-511.957 511.973-511.97 0.215 0 0.436-0.001 0.655-0.001 103.434 0 204.416 38.892 293.517 99.704 0 0-29.743-4.773-41.278-4.109-6.42 0.368-18.033 1.856-18.033 1.856l-2.208-1.282c-62.584-38.896-135.132-62.1-232.65-62.227-132.058 0.010-251.459 53.48-338.018 140.014-86.534 86.56-140.003 205.958-140.012 338.016 0.010 132.061 53.48 251.459 140.012 338.018 86.56 86.534 205.958 140.003 338.018 140.010 132.057-0.005 251.457-53.476 338.017-140.010 86.534-86.56 140.001-205.958 140.010-338.018 0.004-79.698-10.728-146.628-35.539-204.176-24.426-56.564-62.401-104.563-119.141-147.695-28.135-11.192-52.737-15.56-74.259-15.568-48.532 0.051-82.943 22.168-106.388 45.105-11.624 11.435-20.253 22.992-25.871 31.575-2.816 4.29-4.878 7.83-6.205 10.227-0.665 1.202-1.14 2.112-1.438 2.691-0.147 0.293-0.248 0.497-0.305 0.614-0.033 0.057-0.046 0.094-0.056 0.106l-4.818-2.338-25.814-12.282c0.561-1.113 13.2-27.657 40.699-54.784 27.311-27.019 70.647-54.856 130.056-54.859h0.142c26.841-0.004 68.51 6.902 91.532 20.248l0.128-0.169c0.495 0.367 0.965 0.751 1.457 1.122 0.43 0.267 0.874 0.53 1.288 0.802l-0.067 0.14c60.914 46.090 103.464 99.399 130.229 161.637 27.211 63.152 38.309 134.947 38.311 217.606-0.019 282.761-229.216 511.96-511.975 511.973z" />
<glyph unicode="&#xe91d;" glyph-name="plusincircle" d="M0.010 448.012c0.009 282.769 229.219 511.976 511.981 511.985v0c282.765-0.009 511.973-229.219 511.985-511.985v0c-0.011-282.764-229.219-511.972-511.985-511.982v0c-282.761 0.010-511.972 229.218-511.981 511.982v0zM169.344 790.664c-87.712-87.733-141.922-208.792-141.932-342.652v0c0.010-133.856 54.22-254.914 141.932-342.647v0c87.733-87.712 208.79-141.926 342.647-141.932v0c133.857 0.009 254.915 54.22 342.652 141.932v0c87.712 87.733 141.922 208.79 141.929 342.647v0c-0.007 133.859-54.217 254.916-141.929 342.652v0c-87.737 87.712-208.794 141.926-342.652 141.93v0c-133.856-0.005-254.913-54.218-342.647-141.93v0zM874.707 494.884h-313.679v315.842h-98.070v-315.842h-313.679v-93.743h313.679v-315.842h98.070v315.842h313.679z" />
<glyph unicode="&#xe91e;" glyph-name="pricechange" d="M428.792 237.096v1.637c27.85 23.753 47.506 53.237 56.511 88.456 7.373 29.485 5.733 60.61 3.28 91.729h111.387v51.601h-117.938c-4.913 26.209-9.832 52.419-9.832 87.634 0 58.151 26.209 102.381 90.092 102.381 34.401 0 58.156-8.192 72.894-16.383l16.385 54.058c-17.199 10.648-46.686 20.478-89.279 20.478-90.911 0-157.253-63.067-157.253-159.714 0-31.941 4.919-63.884 9.011-88.451h-76.167v-51.601h84.358c3.272-21.292 4.092-37.673 4.092-57.33 0-61.427-38.494-115.484-93.364-143.333v-40.949h339.896v59.791h-244.073zM181.542 769.37c82.286 82.269 195.827 133.112 321.373 133.12 125.546-0.006 239.088-50.851 321.377-133.12 36.401-36.412 66.636-78.952 89.052-125.936 7.928 3.315 15.891 6.518 23.861 9.691-76.934 162.59-242.469 275.058-434.289 275.064-202.304-0.006-375.374-125.106-446.098-302.168 7.752-3.676 15.559-7.23 23.411-10.681 23.058 58.192 57.783 110.487 101.314 154.029zM933.156 301.153c-22.667-66.435-60.28-125.938-108.864-174.533-82.289-82.267-195.83-133.112-321.377-133.118-125.545 0.005-239.087 50.851-321.373 133.118-47.348 47.359-84.258 105.086-107.087 169.482-7.707-3.888-15.671-7.116-23.729-10.048 66.448-185.524 243.809-318.246 452.189-318.252 210.19 0.006 388.817 135.042 453.898 323.092-7.913 3.294-15.793 6.728-23.657 10.26zM144.609 585.173l-121.334-23.256-23.256 121.333zM1023.978 259.758l-44.628 115.2-115.199-44.628z" />
<glyph unicode="&#xe91f;" glyph-name="range" d="M149.655 950.074c-82.652 0-149.654-67.003-149.654-149.654 0-26.139 6.701-50.713 18.48-72.098 25.464-46.233 131.174-204.234 131.174-204.234s103.568 156.653 129.48 201.241c12.827 22.070 20.174 47.723 20.174 75.090 0 82.652-67.003 149.654-149.654 149.654zM149.655 753.876c-38.885 0-70.408 31.523-70.408 70.408s31.523 70.408 70.408 70.408 70.409-31.523 70.409-70.408c0-38.885-31.524-70.408-70.409-70.408zM720.491 887.644c-167.615 0-303.492-135.878-303.492-303.49 0-53.008 13.59-102.843 37.477-146.21 51.642-93.759 266.016-414.173 266.016-414.173s210.028 317.684 262.578 408.103c26.016 44.76 40.914 96.778 40.914 152.28 0 167.613-135.879 303.49-303.492 303.49zM720.491 489.763c-78.856 0-142.782 63.927-142.782 142.782 0 78.858 63.927 142.785 142.782 142.785s142.782-63.927 142.782-142.785c0-78.856-63.927-142.782-142.782-142.782zM144.279 501.711l6.386 1.045 608.361-541.713-56.963-0.199-557.784 540.867zM660.239-53.744l-27.923 34.652 149.027-0.599 41.067-34.349zM138.58 499.312l-4.962 3.935 26.479-0.069 7.296-3.9z" />
<glyph unicode="&#xe920;" glyph-name="search" d="M648.268 353.686h-39.342l-84.173 84.173c59.732 54.966 97.17 133.785 97.176 221.366-0.011 166.119-134.652 300.762-300.771 300.771-166.117-0.011-300.759-134.655-300.77-300.774 0.011-166.119 134.652-300.762 300.771-300.774 66.997 0.005 128.866 21.919 178.857 58.956l87.998-87.999v-40.096l353.287-353.287 62.314 62.317-355.347 355.347zM131.077 469.141c-48.667 48.695-78.727 115.8-78.733 190.084 0.007 74.28 30.064 141.385 78.733 190.081 48.7 48.671 115.8 78.729 190.084 78.736 74.284-0.007 141.385-30.064 190.081-78.736 48.671-48.696 78.729-115.801 78.734-190.081-0.007-74.284-30.063-141.389-78.734-190.084-48.696-48.671-115.797-78.727-190.081-78.733-74.284 0.008-141.384 30.062-190.084 78.733z" />
<glyph unicode="&#xe921;" glyph-name="standardequip" d="M33.966 121.225c-18.749 0.006-33.935 15.192-33.939 33.937v0 585.672c0.004 18.749 15.19 33.93 33.939 33.937v0h956.079c18.744-0.009 33.932-15.188 33.939-33.937v0-585.672c-0.006-18.749-15.188-33.931-33.939-33.937v0h-956.079zM21.36 740.834v-585.672c0.013-6.956 5.645-12.593 12.605-12.605v0h956.080c6.953 0.013 12.595 5.649 12.606 12.605v0 585.672c-0.013 6.961-5.651 12.593-12.606 12.605v0h-956.079c-6.961-0.013-12.593-5.644-12.606-12.605v0zM107.66 466.422c-18.748 0.009-33.932 15.192-33.94 33.936v0 145.448c0.009 18.748 15.192 33.932 33.94 33.94v0h145.448c18.744-0.009 33.927-15.192 33.936-33.94v0-145.448c-0.009-18.744-15.192-33.927-33.936-33.936v0h-145.448zM95.050 645.806v-145.448c0.015-6.953 5.651-12.59 12.608-12.605v0h145.448c6.953 0.015 12.59 5.651 12.605 12.605v0 145.448c-0.015 6.958-5.65 12.593-12.605 12.608v0h-145.447c-6.958-0.015-12.595-5.65-12.61-12.608v0zM347.165 619.629v21.328h575.978v-21.328h-575.978zM347.165 511.023v21.331h575.978v-21.331h-575.978zM162.927 302.309v21.335h762.148v-21.335h-762.148zM162.927 217.455v21.335h762.148v-21.335h-762.148zM97.961 303.518v21.331h27.15v-21.331h-27.15zM97.961 218.191v21.33h27.15v-21.33h-27.15zM162.927 385.701v21.33h762.148v-21.33h-762.148zM97.961 386.908v21.334h27.154v-21.334h-27.154z" />
<glyph unicode="&#xe922;" glyph-name="starincircle" d="M512.006 959.983c-282.765 0-511.99-229.225-511.99-511.99s229.225-511.99 511.99-511.99c282.764 0 511.989 229.225 511.989 511.99s-229.225 511.99-511.989 511.99zM766.357 77.258l-254.355 133.723-254.349-133.72 48.577 283.228-205.771 200.576 284.37 41.32 127.174 257.682 127.178-257.68 284.373-41.32-205.775-200.582 48.58-283.228z" />
<glyph unicode="&#xe923;" glyph-name="success" d="M955.849 703.375c-1.321-0.959-2.278-1.652-2.302-1.665l-551.617-551.617c-15.354-15.391-40.327-15.469-55.72-0.154-0.038 0.078-0.038 0.078-0.078 0.154l-275.827 275.79 55.796 55.796 247.93-248.006 536.151 536.189c-93.861 115.973-237.359 190.126-398.179 190.126-282.761 0-511.983-229.223-511.983-511.983s229.222-511.983 511.983-511.983 511.983 229.222 511.983 511.983c0 92.998-24.798 180.204-68.139 255.37z" />
<glyph unicode="&#xe924;" glyph-name="techspec" d="M726.654 635.35c-10.187 40.788-68.127 40.788-78.394 0l-2.977-12.076c-5.401-21.606-27.337-34.751-48.962-29.329-7.331 1.807-14.007 5.667-19.265 11.090l-8.626 8.871c-29.223 30.234-79.397 1.274-67.836-39.144l3.369-11.953c6.122-21.441-6.306-43.786-27.745-49.906-7.23-2.096-14.91-2.096-22.139-0.041l-11.953 3.45c-40.377 11.544-69.398-38.612-39.165-67.857l8.875-8.63c16.058-15.483 16.512-41.073 1.005-57.093-5.237-5.423-11.911-9.284-19.242-11.132l-12.036-2.997c-40.808-10.187-40.808-68.104 0-78.371l12.036-3c21.626-5.423 34.791-27.316 29.369-48.963-1.828-7.353-5.689-14.005-11.131-19.263l-8.875-8.626c-30.232-29.245-1.253-79.399 39.165-67.857l11.953 3.369c21.441 6.163 43.786-6.243 49.927-27.684 2.076-7.272 2.076-14.951 0-22.223l-3.409-11.911c-11.562-40.377 38.613-69.377 67.836-39.147l8.626 8.875c15.486 16.017 41.056 16.47 57.095 0.984 5.442-5.258 9.304-11.911 11.131-19.223l2.977-12.076c10.228-40.789 68.122-40.789 78.394 0l2.997 12.076c5.38 21.606 27.316 34.75 48.963 29.326 7.353-1.808 14.005-5.666 19.263-11.087l8.626-8.875c29.246-30.23 79.399-1.272 67.858 39.147l-3.369 11.953c-6.162 21.443 6.243 43.787 27.681 49.949 7.274 2.053 14.954 2.053 22.223 0l11.913-3.45c40.377-11.543 69.377 38.612 39.147 67.857l-8.872 8.626c-16.020 15.486-16.513 41.076-0.985 57.095 5.258 5.421 11.913 9.282 19.222 11.131l12.076 3c40.789 10.186 40.789 68.101 0 78.371l-12.076 2.997c-21.605 5.423-34.75 27.317-29.326 48.963 1.808 7.354 5.667 14.007 11.091 19.263l8.872 8.63c30.23 29.245 1.272 79.401-39.147 67.857l-11.953-3.369c-21.439-6.162-43.786 6.285-49.907 27.726-2.096 7.229-2.096 14.909-0.041 22.138l3.452 11.953c11.542 40.376-38.612 69.377-67.858 39.144l-8.626-8.871c-15.488-16.020-41.076-16.472-57.095-0.985-5.423 5.256-9.282 11.911-11.131 19.223l-2.997 12.076zM687.465 119.235c-116.098-1.643-211.538 91.147-213.181 207.224-1.643 116.080 91.147 211.541 207.224 213.183 1.992 0 3.965 0 5.957 0 116.081 0 210.226-94.145 210.226-210.225s-94.145-210.225-210.226-210.225v0.041zM271.949 880.963c-7.375 29.522-49.31 29.522-56.742 0l-2.156-8.741c-3.909-15.639-19.787-25.152-35.438-21.228-5.307 1.307-10.139 4.104-13.945 8.027l-6.243 6.421c-21.153 21.884-57.47 0.921-49.101-28.334l2.438-8.653c4.431-15.52-4.563-31.693-20.082-36.123-5.233-1.516-10.794-1.516-16.026-0.030l-8.652 2.499c-29.226 8.355-50.231-27.947-28.349-49.116l6.422-6.245c11.624-11.206 11.951-29.73 0.727-41.325-3.791-3.925-8.621-6.72-13.929-8.059l-8.711-2.17c-29.538-7.375-29.538-49.293 0-56.726l8.711-2.171c15.653-3.925 25.183-19.772 21.258-35.44-1.323-5.321-4.119-10.137-8.057-13.943l-6.422-6.243c-21.881-21.168-0.905-57.47 28.349-49.116l8.652 2.438c15.52 4.459 31.694-4.519 36.139-20.038 1.501-5.264 1.501-10.822 0-16.086l-2.468-8.62c-8.368-29.226 27.948-50.219 49.101-28.336l6.243 6.425c11.21 11.593 29.715 11.921 41.326 0.711 3.939-3.806 6.734-8.621 8.057-13.914l2.156-8.741c7.404-29.524 49.308-29.524 56.742 0l2.17 8.741c3.893 15.64 19.772 25.151 35.44 21.226 5.321-1.307 10.137-4.103 13.943-8.025l6.243-6.425c21.169-21.881 57.471-0.92 49.116 28.336l-2.438 8.65c-4.459 15.521 4.517 31.695 20.036 36.153 5.266 1.487 10.823 1.487 16.086 0l8.621-2.499c29.226-8.354 50.216 27.947 28.335 49.116l-6.422 6.243c-11.595 11.21-11.951 29.731-0.714 41.326 3.806 3.925 8.621 6.718 13.914 8.057l8.741 2.171c29.524 7.373 29.524 49.292 0 56.726l-8.741 2.17c-15.639 3.925-25.152 19.773-21.228 35.44 1.307 5.322 4.104 10.139 8.027 13.941l6.422 6.245c21.881 21.169 0.921 57.471-28.335 49.116l-8.652-2.438c-15.519-4.459-31.694 4.548-36.123 20.067-1.517 5.232-1.517 10.792-0.030 16.025l2.499 8.653c8.354 29.224-27.947 50.215-49.116 28.334l-6.243-6.421c-11.211-11.595-29.731-11.922-41.327-0.714-3.925 3.806-6.718 8.621-8.056 13.914l-2.168 8.746zM243.584 507.393c-84.033-1.189-153.115 65.972-154.303 149.992s65.972 153.116 149.992 154.305c1.442 0 2.869 0 4.31 0 84.022 0 152.166-68.144 152.166-152.164s-68.144-152.162-152.166-152.162v0.029z" />
<glyph unicode="&#xe925;" glyph-name="tick" d="M64.7 487.029l287.378-287.466 607.137 607.182 29.888-30.029v-0.090l34.877-34.466c0 0-0.090-0.045-0.178-0.090l-639.386-639.385c-17.797-17.84-46.744-17.93-64.586-0.178-0.044 0.090-0.044 0.090-0.090 0.178l-319.713 319.671z" />
<glyph unicode="&#xe926;" glyph-name="tickincirc" d="M948.212 639.937c-7.243-6.11-13.338-14.048-20.212-20.339 20.996-53.114 32.546-110.996 32.548-171.608-0.005-129.017-52.256-245.698-136.796-330.258-84.564-84.544-201.244-136.792-330.262-136.798-129.016 0.005-245.697 52.255-330.256 136.798-84.544 84.56-136.792 201.24-136.8 330.258 0.007 129.016 52.256 245.697 136.8 330.261 84.56 84.544 201.24 136.792 330.256 136.8 129.017-0.005 245.698-52.256 330.262-136.8 18.229-18.236 34.95-37.97 49.977-58.995 6.235 6.144 13.040 11.925 20.071 17.334-89.624 124.1-235.529 204.866-400.31 204.872-272.536-0.010-493.457-220.93-493.466-493.471 0.010-272.54 220.929-493.459 493.466-493.466 272.541 0.009 493.46 220.928 493.473 493.466-0.003 68.088-13.809 132.944-38.751 191.947zM993.743 765.46v0.078l-25.901 26.026-526.187-526.226-249.062 249.138-56.051-56.051 277.087-277.049c0.039-0.078 0.039-0.078 0.078-0.154 15.463-15.384 40.551-15.307 55.975 0.154l554.136 554.137c0.076 0.039 0.154 0.078 0.154 0.078l-30.228 29.87z" />
<glyph unicode="&#xe927;" glyph-name="tickingclock" d="M268.532 82.768l16.804 27.53c-16.77 10.395-33.138 21.537-48.34 34.158l-20.34-25.031c16.319-13.532 33.87-25.509 51.876-36.658zM372.086 35.689l9.694 30.761c-18.888 5.747-37.213 13.223-55.094 21.56l-13.764-29.17c19.195-8.957 38.882-16.966 59.164-23.15zM483.54 14.876l2.058 32.188c-19.725 1.205-39.299 4.023-58.696 7.683l-6.356-31.623c20.821-3.945 41.835-6.954 62.993-8.247zM62.761 347.218l30.835 9.464c-5.59 18.925-10.326 38.12-13.459 57.623l-31.83-5.212c3.368-20.935 8.435-41.557 14.454-61.877zM109.154 243.348l27.654 16.6c-10.175 16.913-19.304 34.476-26.96 52.673l-29.638-12.724c8.229-19.535 18.022-38.393 28.944-56.549zM178.683 153.804l22.92 22.695c-13.98 13.967-26.726 29.109-38.743 44.767l-25.744-19.431c12.884-16.811 26.576-33.041 41.568-48.031zM512.508 959.986c-162.693-0.009-306.175-82.175-391.253-207.265 8.729-5.769 17.504-11.447 26.402-16.874 15.561 22.78 33.186 44.044 52.635 63.501 79.95 79.925 190.238 129.311 312.213 129.319 121.975-0.009 232.259-49.396 312.207-129.319 79.929-79.956 129.317-190.238 129.323-312.217-0.007-121.975-49.395-232.259-129.323-312.212-75.809-75.786-178.898-124.086-293.361-128.893 1.106-10.092 2.174-20.695 2.912-31.227 251.047 11.387 451.078 218.474 451.091 472.333-0.011 261.155-211.697 472.84-472.848 472.854zM529.024 14.615c-1.838 10.445-0.051 20.893 0.32 31.34zM531.355 46.024c-0.67-0.029-1.343-0.041-2.012-0.068-0.371-10.448-2.158-20.895-0.32-31.34 1.747 0.060 3.501 0.102 5.243 0.183-0.737 10.532-1.806 21.135-2.912 31.227zM482.236 455.835v377.866h31.315v-377.866h-31.315zM483.042 451.661v31.318h252.604v-31.318h-252.604zM535.581 475.67c0-20.753-16.824-37.578-37.578-37.578s-37.578 16.824-37.578 37.578c0 20.753 16.824 37.578 37.578 37.578s37.578-16.824 37.578-37.578zM510.009 26.174l90.384 122.906 25.224-18.549-67.654-97.68 93.18-71.594-18.548-25.225-122.585 90.145zM75.73 667.589l29.705-12.568c7.881 18.093 16.592 35.838 26.725 52.792l-27.731 16.465c-10.877-18.201-20.248-37.254-28.698-56.689zM44.508 558.195l31.857-5.058c3.074 19.495 7.371 38.82 13.204 57.678l-30.884 9.304c-6.255-20.253-10.876-40.995-14.177-61.923zM40.219 444.909l32.144 2.653c-1.735 19.684-1.766 39.477-0.906 59.194l-32.21 1.663c-0.935-21.159-0.88-42.393 0.972-63.511z" />
<glyph unicode="&#xe928;" glyph-name="twit" d="M512.004 959.972c-282.758 0-511.978-229.22-511.978-511.978s229.22-511.978 511.978-511.978c282.757 0 511.978 229.221 511.978 511.978s-229.221 511.978-511.978 511.978zM840.511 563.244c0.282-6.643 0.282-13.4 0.282-20.066 0-206-157.091-443.958-444.307-443.958-84.7 0-167.634 24.153-239.047 69.674 12.308-1.487 24.71-2.186 37.091-2.136 70.369-0.093 138.742 23.457 194.061 66.932-66.77 1.164-125.411 44.732-145.871 108.272 9.639-1.81 19.416-2.692 29.216-2.692 13.887-0.047 27.73 1.764 41.13 5.48-72.785 14.819-125.109 78.777-125.178 153.048v2.138c21.713-11.915 45.913-18.558 70.671-19.393-68.557 45.846-89.739 137.048-48.422 208.418 79.333-97.52 196.316-156.788 321.868-163.107-12.635 54.298 4.597 111.221 45.24 149.38 62.939 59.082 161.828 55.971 220.911-6.967 35.020 6.782 68.604 19.554 99.308 37.716-11.751-36.184-36.23-66.888-68.838-86.418 30.979 3.74 61.262 12.054 89.831 24.642-20.995-31.401-47.378-58.805-77.943-80.961z" />
<glyph unicode="&#xe929;" glyph-name="type1con" d="M622.154 233.237c-0.009-60.844-49.313-110.15-110.158-110.159v0c-60.844 0.009-110.148 49.315-110.156 110.159v0c0.009 60.844 49.313 110.15 110.156 110.159v0c60.845-0.009 110.149-49.315 110.158-110.159v0zM571.273 173.959c15.193 15.212 24.549 36.086 24.554 59.277v0c-0.005 23.189-9.361 44.065-24.554 59.28v0c-15.212 15.187-36.088 24.543-59.276 24.551v0c-23.189-0.009-44.065-9.364-59.276-24.551v0c-15.189-15.213-24.549-36.090-24.554-59.28v0c0.005-23.193 9.366-44.067 24.554-59.277v0c15.212-15.191 36.087-24.546 59.276-24.551v0c23.188 0.005 44.065 9.361 59.276 24.551v0zM787.736 587.96c-0.009-60.844-49.313-110.15-110.158-110.16v0c-60.845 0.010-110.149 49.316-110.158 110.16v0c0.009 60.843 49.313 110.149 110.158 110.158v0c60.845-0.006 110.149-49.314 110.158-110.158v0zM736.857 528.681c15.192 15.212 24.547 36.087 24.554 59.28v0c-0.006 23.189-9.363 44.065-24.554 59.277v0c-15.212 15.189-36.088 24.545-59.277 24.553v0c-23.189-0.009-44.065-9.364-59.277-24.553v0c-15.189-15.212-24.547-36.088-24.554-59.277v0c0.006-23.193 9.366-44.068 24.554-59.28v0c15.212-15.191 36.088-24.546 59.277-24.551v0c23.189 0.005 44.065 9.361 59.277 24.551v0zM457.956 587.96c-0.009-60.844-49.313-110.15-110.159-110.16v0c-60.844 0.010-110.148 49.316-110.156 110.16v0c0.009 60.843 49.313 110.149 110.156 110.158v0c60.846-0.006 110.15-49.314 110.159-110.158v0zM407.075 528.681c15.192 15.212 24.547 36.087 24.554 59.28v0c-0.006 23.189-9.363 44.065-24.554 59.277v0c-15.212 15.189-36.088 24.545-59.277 24.553v0c-23.189-0.009-44.065-9.364-59.276-24.553v0c-15.189-15.212-24.549-36.088-24.554-59.277v0c0.005-23.193 9.366-44.068 24.554-59.28v0c15.212-15.191 36.087-24.546 59.276-24.551v0c23.189 0.005 44.064 9.361 59.277 24.551v0zM805.751 355.174c-0.009-45.539-36.908-82.436-82.445-82.446v0c-45.539 0.010-82.438 36.909-82.446 82.446v0c0.009 45.539 36.909 82.438 82.446 82.446v0c45.539-0.009 82.436-36.909 82.445-82.446v0zM762.987 315.492c10.178 10.197 16.43 24.141 16.436 39.681v0c-0.005 15.538-6.26 29.483-16.436 39.683v0c-10.197 10.178-24.143 16.43-39.681 16.436v0c-15.538-0.005-29.483-6.26-39.683-16.436v0c-10.178-10.197-16.43-24.143-16.436-39.683v0c0.005-15.538 6.26-29.482 16.436-39.681v0c10.197-10.179 24.143-16.432 39.683-16.438v0c15.537 0.005 29.482 6.26 39.681 16.438v0zM380.362 355.175c-0.009-45.54-36.909-82.438-82.446-82.448v0c-45.539 0.010-82.436 36.909-82.445 82.448v0c0.009 45.539 36.908 82.436 82.445 82.445v0c45.539-0.009 82.438-36.908 82.446-82.445v0zM337.594 315.492c10.179 10.197 16.432 24.141 16.438 39.683v0c-0.005 15.537-6.26 29.482-16.438 39.681v0c-10.195 10.178-24.141 16.43-39.681 16.438v0c-15.537-0.006-29.482-6.261-39.681-16.438v0c-10.179-10.197-16.432-24.143-16.438-39.681v0c0.005-15.539 6.26-29.483 16.438-39.683v0c10.197-10.179 24.143-16.432 39.681-16.438v0c15.538 0.005 29.484 6.26 39.681 16.438v0zM627.913 853.865c-5.206 59.478-55.090 106.131-115.918 106.14-60.826-0.009-110.713-46.661-115.916-106.137-177.438-50.41-307.389-213.643-307.396-407.244 0.006-193.699 130.093-357 307.673-407.318 6.519-58.112 55.783-103.282 115.639-103.29 59.854 0.009 109.12 45.178 115.641 103.292 177.577 50.318 307.665 213.616 307.673 407.317-0.009 193.602-129.959 356.832-307.396 407.243zM792.707 165.914c-45.543-45.532-102.046-80.016-165.223-99.194-8.468-2.57-17.049-4.889-25.747-6.899 0.199-2.446 0.327-4.913 0.327-7.413-0.001-6.865-0.791-13.534-2.239-19.947-3.807-16.857-12.318-31.9-24.138-43.737-16.341-16.319-38.775-26.372-63.689-26.379-24.912 0.006-47.346 10.061-63.684 26.379-11.823 11.834-20.33 26.877-24.139 43.737-1.448 6.414-2.239 13.081-2.241 19.947 0 2.499 0.129 4.966 0.328 7.412-8.699 2.009-17.279 4.326-25.747 6.898-63.179 19.178-119.684 53.666-165.226 99.197-71.861 71.88-116.27 171.044-116.275 280.708 0.005 109.669 44.414 208.828 116.275 280.71 45.626 45.612 102.249 80.138 165.564 99.295 8.441 2.554 16.992 4.856 25.662 6.853-0.371 3.322-0.579 6.696-0.58 10.125 0.001 5.836 0.575 11.529 1.629 17.046 3.449 18.034 12.252 34.127 24.749 46.642 16.336 16.319 38.771 26.374 63.683 26.377 24.912-0.005 47.346-10.061 63.689-26.379 12.495-12.514 21.298-28.606 24.747-46.642 1.055-5.517 1.628-11.209 1.629-17.046 0-3.426-0.208-6.8-0.58-10.125 8.67-1.996 17.22-4.3 25.662-6.853 63.315-19.157 119.941-53.684 165.563-99.295 71.859-71.883 116.266-171.044 116.275-280.71-0.005-109.664-44.416-208.826-116.275-280.706z" />
<glyph unicode="&#xe92a;" glyph-name="type2con" d="M99.321 502.999c0.009 62.737 50.846 113.578 113.584 113.586v0c62.737-0.009 113.575-50.849 113.584-113.586v0c-0.009-62.735-50.846-113.575-113.584-113.584v0c-62.737 0.009-113.575 50.849-113.584 113.584v0zM151.785 564.122c-15.665-15.686-25.311-37.209-25.319-61.123v0c0.006-23.911 9.653-45.435 25.319-61.121v0c15.686-15.661 37.209-25.309 61.121-25.318v0c23.911 0.009 45.435 9.655 61.121 25.318v0c15.661 15.686 25.311 37.21 25.319 61.121v0c-0.006 23.915-9.657 45.438-25.319 61.123v0c-15.687 15.664-37.21 25.31-61.121 25.315v0c-23.912-0.006-45.435-9.653-61.121-25.315v0zM399.356 502.999c0.009 62.737 50.846 113.578 113.585 113.586v0c62.736-0.009 113.574-50.849 113.581-113.586v0c-0.009-62.735-50.846-113.575-113.581-113.584v0c-62.738 0.009-113.576 50.849-113.585 113.584v0zM451.82 564.122c-15.665-15.686-25.311-37.209-25.319-61.123v0c0.006-23.911 9.653-45.435 25.319-61.121v0c15.686-15.661 37.21-25.309 61.121-25.318v0c23.911 0.009 45.435 9.655 61.12 25.318v0c15.661 15.686 25.313 37.21 25.319 61.121v0c-0.006 23.915-9.657 45.438-25.319 61.123v0c-15.685 15.664-37.209 25.31-61.12 25.315v0c-23.911-0.006-45.435-9.653-61.121-25.315v0zM699.391 502.999c0.009 62.737 50.846 113.578 113.585 113.586v0c62.736-0.009 113.574-50.849 113.581-113.586v0c-0.009-62.735-50.846-113.575-113.581-113.584v0c-62.738 0.009-113.576 50.849-113.585 113.584v0zM751.855 564.122c-15.665-15.686-25.311-37.209-25.319-61.123v0c0.007-23.911 9.654-45.435 25.319-61.121v0c15.686-15.661 37.21-25.309 61.121-25.318v0c23.911 0.009 45.435 9.655 61.12 25.318v0c15.661 15.686 25.313 37.21 25.319 61.121v0c-0.006 23.915-9.657 45.438-25.319 61.123v0c-15.685 15.664-37.209 25.31-61.12 25.315v0c-23.911-0.006-45.435-9.653-61.121-25.315v0zM247.91 270.114c0.009 62.736 50.846 113.576 113.584 113.586v0c62.737-0.010 113.575-50.85 113.584-113.586v0c-0.009-62.735-50.846-113.575-113.584-113.584v0c-62.737 0.009-113.575 50.849-113.584 113.584v0zM300.374 331.237c-15.665-15.686-25.311-37.209-25.319-61.123v0c0.006-23.911 9.653-45.435 25.319-61.121v0c15.686-15.661 37.209-25.309 61.121-25.318v0c23.911 0.009 45.435 9.655 61.121 25.318v0c15.661 15.686 25.311 37.21 25.319 61.121v0c-0.006 23.915-9.657 45.438-25.319 61.123v0c-15.687 15.664-37.21 25.31-61.121 25.315v0c-23.912-0.006-45.435-9.653-61.121-25.315v0zM547.945 270.114c0.009 62.736 50.846 113.576 113.585 113.586v0c62.736-0.010 113.574-50.85 113.581-113.586v0c-0.009-62.735-50.846-113.575-113.581-113.584v0c-62.738 0.009-113.576 50.849-113.585 113.584v0zM600.409 331.237c-15.665-15.686-25.311-37.209-25.319-61.123v0c0.007-23.911 9.654-45.435 25.319-61.121v0c15.686-15.661 37.21-25.309 61.121-25.318v0c23.911 0.009 45.435 9.655 61.12 25.318v0c15.661 15.686 25.313 37.21 25.319 61.121v0c-0.006 23.915-9.657 45.438-25.319 61.123v0c-15.685 15.664-37.209 25.31-61.12 25.315v0c-23.911-0.006-45.435-9.653-61.121-25.315v0zM273.626 703.022c0.009 46.955 38.055 85.003 85.010 85.011v0c46.955-0.009 85.003-38.056 85.011-85.011v0c-0.009-46.955-38.056-85.003-85.011-85.010v0c-46.955 0.009-85.001 38.055-85.010 85.010v0zM317.723 743.939c-10.495-10.515-16.944-24.892-16.95-40.914v0c0.006-16.021 6.455-30.401 16.95-40.914v0c10.515-10.495 24.892-16.942 40.914-16.95v0c16.022 0.006 30.401 6.455 40.914 16.95v0c10.495 10.515 16.944 24.895 16.95 40.914v0c-0.006 16.022-6.455 30.401-16.95 40.914v0c-10.515 10.495-24.892 16.944-40.914 16.95v0c-16.022-0.006-30.401-6.455-40.914-16.95v0zM582.234 703.022c0.009 46.956 38.056 85.003 85.011 85.011v0c46.955-0.009 85.001-38.056 85.010-85.011v0c-0.009-46.955-38.055-85.001-85.010-85.010v0c-46.955 0.009-85.003 38.055-85.011 85.010v0zM626.33 743.939c-10.496-10.515-16.944-24.892-16.95-40.917v0c0.006-16.021 6.455-30.4 16.95-40.914v0c10.512-10.495 24.892-16.942 40.914-16.95v0c16.021 0.007 30.4 6.456 40.914 16.95v0c10.496 10.515 16.944 24.895 16.95 40.914v0c-0.006 16.023-6.455 30.401-16.95 40.917v0c-10.515 10.495-24.895 16.944-40.914 16.95v0c-16.022-0.006-30.401-6.455-40.914-16.95v0z" />
<glyph unicode="&#xe92b;" glyph-name="warning" d="M508.739 862.46l-508.728-828.92h1023.958l-515.231 828.92zM552.398 684.015l-11.784-404.093h-57.246l-11.789 404.093h80.819zM511.991 107.342h-0.839c-28.628 0-48.831 22.728-48.831 52.193 0 30.308 21.048 52.199 49.671 52.199 30.305 0 49.669-21.889 49.669-52.199-0.001-29.466-19.364-52.193-49.67-52.193z" />
<glyph unicode="&#xe92c;" glyph-name="wheelbase" d="M875.3 253.861h-107.729c-10.127 0-18.337-8.21-18.337-18.337v-128.358h-184.133v58.067c0 10.127-8.21 18.337-18.337 18.337h-23.716v558.714c22.81 5.305 40.659 23.526 45.396 46.548h179.261v-128.358c0-10.127 8.21-18.337 18.337-18.337h107.729c10.127 0 18.337 8.21 18.337 18.337v281.166c0 10.127-8.21 18.337-18.337 18.337h-107.729c-10.127 0-18.337-8.21-18.337-18.337v-128.358h-179.261c-5.65 27.474-29.972 48.134-59.119 48.134s-53.467-20.66-59.119-48.134h-175.441v128.358c0 10.127-8.21 18.337-18.337 18.337h-107.729c-10.127 0-18.337-8.21-18.337-18.337v-281.166c0-10.127 8.21-18.337 18.337-18.337h107.729c10.127 0 18.337 8.21 18.337 18.337v128.358h175.441c4.736-23.021 22.587-41.243 45.396-46.548v-558.714h-23.716c-10.127 0-18.337-8.21-18.337-18.337v-58.067h-177.257v128.358c0 10.127-8.21 18.337-18.337 18.337h-107.729c-10.127 0-18.337-8.21-18.337-18.337v-281.166c0-10.127 8.21-18.337 18.337-18.337h107.729c10.127 0 18.337 8.21 18.337 18.337v128.358h177.257v-58.067c0-10.127 8.21-18.337 18.337-18.337h74.876c10.127 0 18.337 8.21 18.337 18.337v58.067h184.133v-128.358c0-10.127 8.21-18.337 18.337-18.337h107.729c10.127 0 18.337 8.21 18.337 18.337v281.166c0 10.127-8.21 18.337-18.337 18.337z" />
<glyph unicode="&#xe92d;" glyph-name="account" d="M676.419 629.986c0-90.801-73.61-164.411-164.411-164.411s-164.411 73.61-164.411 164.411c0 90.801 73.61 164.411 164.411 164.411s164.411-73.61 164.411-164.411zM842.117 117.821c0.094 3.255 0.155 6.517 0.155 9.793 0 182.401-147.863 330.266-330.266 330.266-182.399 0-330.264-147.865-330.264-330.266 0-3.277 0.061-6.541 0.155-9.796 86.559-80.588 202.507-129.875 330.106-129.88 127.603 0.006 243.551 49.294 330.113 129.882zM512.003 959.984c-282.76-0.010-511.968-229.219-511.977-511.985 0.005-158.625 72.142-300.392 185.396-394.299 88.632-73.491 202.444-117.675 326.581-117.679 124.142 0.005 237.957 44.189 326.59 117.683 113.252 93.909 185.388 235.673 185.395 394.297-0.011 282.765-229.218 511.975-511.985 511.985zM854.655 105.354c-4.1-4.099-8.296-8.098-12.538-12.048-86.563-80.588-202.51-129.876-330.113-129.882-127.599 0.006-243.546 49.293-330.106 129.88-4.243 3.95-8.441 7.951-12.54 12.049-87.715 87.733-141.924 208.79-141.932 342.647 0.006 133.857 54.217 254.914 141.932 342.65 87.733 87.715 208.79 141.924 342.646 141.932 133.857-0.006 254.915-54.217 342.652-141.932 87.711-87.737 141.922-208.794 141.927-342.65-0.006-133.857-54.216-254.914-141.927-342.647z" />
<glyph unicode="&#xe92e;" glyph-name="arrow-right-short" d="M100.62 448c0 28.398 23.017 51.414 51.414 51.414v0h595.735l-220.793 220.688c-9.317 9.317-15.079 22.187-15.079 36.404 0 28.431 23.052 51.483 51.483 51.483 14.216 0 27.087-5.763 36.404-15.079v0l308.507-308.507c9.337-9.309 15.102-22.181 15.102-36.404s-5.777-27.095-15.102-36.402l-308.509-308.509c-9.317-9.317-22.187-15.079-36.404-15.079-28.431 0-51.483 23.052-51.483 51.483 0 14.216 5.763 27.087 15.079 36.404v0l220.793 220.688h-595.735c-28.398 0-51.414 23.017-51.414 51.414v0z" />
<glyph unicode="&#xe92f;" glyph-name="bank" d="M512.008 959.967l421.704-194.584h56.78c17.617 0 31.899-14.282 31.899-31.899v0-127.596c0-17.617-14.282-31.899-31.899-31.899v0h-31.899v-446.585c14.872-0.004 27.365-10.186 30.894-23.958l0.048-0.221 31.899-127.596c0.602-2.318 0.948-4.978 0.948-7.72 0-17.614-14.277-31.894-31.89-31.899h-956.969c-17.613 0.005-31.89 14.285-31.89 31.899 0 2.741 0.346 5.402 0.996 7.941l-0.048-0.221 31.899 127.596c3.577 13.994 16.070 24.175 30.942 24.179v0 446.585h-31.899c-17.617 0-31.899 14.282-31.899 31.899v0 127.596c0 17.617 14.282 31.899 31.899 31.899v0h56.78l421.704 194.584zM242.526 765.384h538.901l-269.419 124.406-269.482-124.406zM129.22 573.99v-446.585h63.798v446.585h-63.798zM256.816 573.99v-446.585h159.495v446.585h-159.495zM480.109 573.99v-446.585h63.798v446.585h-63.798zM607.705 573.99v-446.585h159.495v446.585h-159.495zM830.998 573.99v-446.585h63.798v446.585h-63.798zM958.593 637.788v63.798h-893.171v-63.798h893.171zM933.712 63.607h-843.409l-15.949-63.798h875.308l-15.949 63.798z" />
<glyph unicode="&#xe930;" glyph-name="briefcase-fill" d="M415.997 863.98c-53.017 0-95.996-42.979-95.996-95.996v0-31.999h-223.99c-53.017 0-95.996-42.979-95.996-95.996v0-88.572l487.275-129.914c7.41-2.053 15.918-3.233 24.703-3.233s17.293 1.18 25.376 3.39l-0.673-0.157 487.275 129.914v88.572c0 53.017-42.979 95.996-95.996 95.996v0h-223.99v31.999c0 53.017-42.979 95.996-95.996 95.996v0h-191.992zM415.997 799.983h191.992c17.672 0 31.999-14.326 31.999-31.999v0-31.999h-255.989v31.999c0 17.672 14.326 31.999 31.999 31.999v0zM0.015 128.012c0-53.017 42.979-95.996 95.996-95.996v0h831.964c53.017 0 95.996 42.979 95.996 95.996v0 361.584l-503.722-134.202c-2.476-0.688-5.32-1.083-8.256-1.083s-5.78 0.395-8.481 1.136l0.225-0.052-503.722 134.202v-361.584z" />
<glyph unicode="&#xe931;" glyph-name="caret-right-fill" d="M746.527 396.109l-378.201-330.867c-44.572-39.048-114.38-7.317-114.38 51.949v661.744c0 0.022 0 0.036 0 0.062 0 38.102 30.885 68.987 68.987 68.987 17.453 0 33.388-6.475 45.538-17.17l-0.075 0.072 378.059-330.867c14.491-12.716 23.591-31.274 23.591-51.949s-9.1-39.233-23.519-51.876l-0.075-0.073z" />
<glyph unicode="&#xe932;" glyph-name="chevron-right" d="M305.598 839.010c5.572 5.584 13.275 9.039 21.784 9.039s16.214-3.455 21.783-9.039l369.233-369.233c5.584-5.572 9.039-13.275 9.039-21.784s-3.455-16.214-9.039-21.783l-369.233-369.233c-5.576-5.576-13.277-9.024-21.784-9.024-17.015 0-30.808 13.793-30.808 30.808 0 8.508 3.448 16.21 9.024 21.784v0l347.51 347.448-347.51 347.448c-5.584 5.572-9.039 13.275-9.039 21.784s3.455 16.214 9.039 21.783l0.001 0.001z" />
<glyph unicode="&#xe933;" glyph-name="credit-card" d="M0.015 703.989c0 70.689 57.305 127.994 127.994 127.994v0h767.966c70.689 0 127.994-57.305 127.994-127.994v0-511.978c0-70.689-57.305-127.994-127.994-127.994v0h-767.966c-70.689 0-127.994 57.305-127.994 127.994v0 511.978zM128.010 767.986c-35.344 0-63.997-28.653-63.997-63.997v0-63.997h895.961v63.997c0 35.344-28.653 63.997-63.997 63.997v0h-767.966zM959.973 511.997h-895.961v-319.986c0-35.344 28.653-63.997 63.997-63.997v0h767.966c35.344 0 63.997 28.653 63.997 63.997v0 319.986zM128.010 320.006c0 35.344 28.653 63.997 63.997 63.997v0h63.997c35.344 0 63.997-28.653 63.997-63.997v0-63.997c0-35.344-28.653-63.997-63.997-63.997v0h-63.997c-35.344 0-63.997 28.653-63.997 63.997v0 63.997z" />
<glyph unicode="&#xe934;" glyph-name="file-earmark-pdf-fill" d="M353.477 164.879c8.96 5.248 18.751 10.368 29.375 15.231-9.999-14.845-19.464-27.484-29.489-39.645l0.69 0.862c-17.919-21.567-31.871-33.023-40.639-36.607-0.609-0.268-1.354-0.53-2.121-0.74l-0.119-0.028c-0.593 0.813-1.147 1.737-1.617 2.708l-0.047 0.108c-3.584 7.040-3.456 13.823 2.56 23.039 6.784 10.56 20.415 22.655 41.407 35.071zM510.592 270.284c-7.616-1.6-15.167-3.2-22.783-4.992 7.729 14.206 18.437 36.278 28.554 58.673l3.445 8.525c12.102-22.407 22.921-40.352 34.43-57.8l-1.791 2.89c-13.887-2.048-27.903-4.48-41.855-7.296zM672.187 210.19c-10.16 8.233-19.254 16.819-27.662 26.043l-0.177 0.196c14.591-0.32 27.775-1.408 39.167-3.456 20.287-3.648 29.823-9.408 33.151-13.375 1.012-1.067 1.641-2.506 1.664-4.092v-0.004c-0.243-4.752-1.639-9.132-3.91-12.926l0.070 0.127c-1.345-3.197-3.398-5.867-5.975-7.905l-0.041-0.031c-1.019-0.635-2.256-1.011-3.581-1.011-0.294 0-0.584 0.019-0.869 0.055l0.034-0.003c-5.76 0.192-16.511 4.224-31.871 16.383zM529.791 513.925c-2.56-15.615-6.912-33.535-12.799-53.055-1.649 5.11-3.613 12.536-5.304 20.067l-0.392 2.076c-4.864 22.591-5.568 40.319-2.944 52.607 2.432 11.328 7.040 15.871 12.543 18.111 2.7 1.224 5.833 2.124 9.116 2.543l0.164 0.017c0.832-1.92 1.792-5.888 2.048-12.671 0.32-7.808-0.448-17.727-2.432-29.759zM256.007 959.992h338.742c17.67-0.004 33.668-7.169 45.247-18.751l237.241-237.241c11.582-11.578 18.747-27.575 18.751-45.246v-594.736c0-70.69-57.306-127.996-127.996-127.996v0h-511.985c-70.69 0-127.996 57.306-127.996 127.996v0 767.977c0 70.69 57.306 127.996 127.996 127.996v0zM607.997 863.995v-127.996c0-35.345 28.653-63.998 63.998-63.998v0h127.996l-191.995 191.995zM266.567 85.266c5.76-11.519 14.719-21.951 28.031-26.815 13.247-4.8 26.367-2.56 37.119 1.92 20.351 8.32 40.639 27.903 59.262 50.303 21.311 25.663 43.711 59.326 65.342 96.637 36.484 11.315 79.801 20.443 124.316 25.651l3.489 0.332c19.199-24.511 39.039-45.631 58.238-60.798 17.919-14.079 38.591-25.791 59.774-26.687 0.809-0.043 1.756-0.067 2.709-0.067 11.133 0 21.49 3.321 30.135 9.026l-0.205-0.127c9.92 6.464 17.279 15.807 22.655 26.623 5.76 11.583 9.28 23.679 8.832 36.031-0.436 12.716-5.203 24.242-12.862 33.227l0.063-0.076c-14.463 17.279-38.143 25.599-61.438 29.759-16.958 2.764-36.506 4.344-56.423 4.344-10.213 0-20.327-0.415-30.33-1.23l1.315 0.086c-22.281 31.092-43.181 66.475-60.9 103.664l-1.818 4.237c15.999 42.239 27.967 82.173 33.279 114.813 2.304 13.951 3.52 27.263 3.072 39.295-0.086 12.552-3.078 24.386-8.335 34.889l0.207-0.458c-6.164 11.827-17.123 20.435-30.231 23.305l-0.296 0.054c-12.927 2.752-26.239 0-38.463-4.928-24.127-9.6-36.863-30.079-41.663-52.671-4.672-21.759-2.56-47.103 2.944-72.702 5.632-25.983 15.231-54.271 27.519-82.877-22.929-56.785-45.73-103.664-71.233-148.812l3.267 6.289c-36.377-11.578-67.763-25.573-97.221-42.541l2.376 1.262c-23.679-14.079-44.735-30.719-57.406-50.367-13.439-20.863-17.599-45.695-5.12-70.59z" />
<glyph unicode="&#xe935;" glyph-name="hourglass-split" d="M109.731-63.971c-20.197 0-36.57 16.373-36.57 36.57s16.373 36.57 36.57 36.57v0h73.14v73.14c0 0.024 0 0.051 0 0.080 0 130.108 75.495 242.583 185.069 296.009l1.95 0.858c21.211 10.166 32.401 27.574 32.401 43.152v51.198c0 15.579-11.264 32.986-32.401 43.152-111.523 54.285-187.018 166.76-187.018 296.868 0 0.027 0 0.056 0 0.083v-0.003 73.14h-73.14c-20.197 0-36.57 16.373-36.57 36.57s16.373 36.57 36.57 36.57v0h804.538c20.197 0 36.57-16.373 36.57-36.57s-16.373-36.57-36.57-36.57v0h-73.14v-73.14c0-0.024 0-0.051 0-0.080 0-130.108-75.495-242.583-185.069-296.009l-1.95-0.858c-21.211-10.166-32.401-27.574-32.401-43.152v-51.198c0-15.579 11.264-32.986 32.401-43.152 111.523-54.285 187.018-166.76 187.018-296.868 0-0.027 0-0.056 0-0.083v0.003-73.14h73.14c20.197 0 36.57-16.373 36.57-36.57s-16.373-36.57-36.57-36.57v0h-804.538zM256.011 886.847v-73.14c0-39.276 8.777-76.431 24.648-109.71h462.682c15.798 33.279 24.648 70.434 24.648 109.71v73.14h-511.979zM475.43 422.409c0-51.271-34.961-90.401-73.944-109.125-86.75-42.218-145.475-129.703-145.475-230.905 0-0.025 0-0.049 0-0.074v0.003s63.339 95.009 219.419 108.247v231.853zM548.57 422.409v-231.853c156.080-13.238 219.419-108.247 219.419-108.247 0 0.021 0 0.046 0 0.071 0 101.201-58.726 188.687-143.959 230.237l-1.517 0.667c-38.984 18.724-73.944 57.78-73.944 109.051z" />
<glyph unicode="&#xe936;" glyph-name="house-fill" d="M512 776.363l409.551-409.551v-287.163c0-56.547-45.841-102.388-102.388-102.388v0h-614.326c-56.547 0-102.388 45.841-102.388 102.388v0 287.163l409.551 409.551zM853.292 830.491v-238.905l-136.517 136.517v102.388c0 18.849 15.28 34.129 34.129 34.129v0h68.258c18.849 0 34.129-15.28 34.129-34.129v0zM463.741 898.75c12.352 12.348 29.413 19.985 48.259 19.985s35.907-7.637 48.259-19.986l453.714-453.646c6.184-6.184 10.008-14.727 10.008-24.163 0-18.872-15.299-34.172-34.172-34.172-9.437 0-17.98 3.825-24.163 10.008v0l-453.646 453.714-453.646-453.714c-6.184-6.184-14.727-10.008-24.163-10.008-18.872 0-34.172 15.299-34.172 34.172 0 9.437 3.825 17.98 10.008 24.163l453.714 453.646z" />
<glyph unicode="&#xe937;" glyph-name="info-square" d="M895.993 896.007c35.346 0 64-28.654 64-64v0-768c0-35.346-28.654-64-64-64v0h-768c-35.346 0-64 28.654-64 64v0 768c0 35.346 28.654 64 64 64v0h768zM127.993 960.007c-70.692 0-128-57.308-128-128v0-768c0-70.692 57.308-128 128-128v0h768c70.692 0 128 57.308 128 128v0 768c0 70.692-57.308 128-128 128v0h-768zM571.513 538.375l-146.56-18.368-5.248-24.32 28.8-5.312c18.816-4.48 22.528-11.264 18.432-30.016l-47.232-221.952c-12.416-57.408 6.72-84.416 51.712-84.416 34.88 0 75.392 16.128 93.76 38.272l5.632 26.624c-12.8-11.264-31.488-15.744-43.904-15.744-17.6 0-24 12.352-19.456 34.112l64.064 301.12zM575.993 672.007c0-35.346-28.654-64-64-64s-64 28.654-64 64v0c0 35.346 28.654 64 64 64s64-28.654 64-64v0z" />
<glyph unicode="&#xe938;" glyph-name="x-lg" d="M29.088 929.576c13.017 13.013 30.998 21.061 50.858 21.061s37.841-8.049 50.858-21.062l380.751-380.751 380.751 380.751c13.099 13.549 31.438 21.96 51.741 21.96 39.728 0 71.935-32.206 71.935-71.935 0-20.303-8.412-38.642-21.94-51.722l-0.021-0.019-380.751-380.751 380.751-380.751c12.495-12.923 20.193-30.549 20.193-49.974 0-39.728-32.206-71.935-71.935-71.935-19.424 0-37.051 7.7-49.995 20.213l0.021-0.019-380.751 380.751-380.751-380.751c-12.923-12.495-30.549-20.193-49.974-20.193-39.728 0-71.935 32.206-71.935 71.935 0 19.424 7.7 37.051 20.213 49.995l-0.019-0.021 380.751 380.751-380.751 380.751c-13.013 13.017-21.061 30.998-21.061 50.858s8.049 37.841 21.062 50.858v0z" />
<glyph unicode="&#xe939;" glyph-name="hybrid" d="M126.631 486.143l-0.141-427.115h-66.705c-11.483 0-20.791-9.309-20.791-20.791l0.29-81.432c0-11.483 9.309-20.791 20.791-20.791h793.53c11.483 0 20.791 9.309 20.791 20.791l-0.291 81.432c0 11.483-9.309 20.791-20.791 20.791h-66.705l0.291 405.781c6.784-1.854 13.498-4.361 19.585-7.745 9.188-5.056 16.988-11.737 22.803-21.1 5.785-9.383 9.843-21.76 10.168-39.354 0.831-49.516 1.031-109.049 1.031-154.652 0-41.846-0.168-71.88-0.168-71.95l-0.004-0.574 0.032-0.483c0.173-1.658 0.918-15.416 11.087-30.438 5.088-7.446 12.747-15.048 23.386-20.504 10.626-5.49 23.976-8.748 39.999-8.733h0.129c15.255 0 28.111 3.288 38.307 9.010 15.469 8.603 23.688 22.099 27.54 33.066 3.931 11.075 4.176 20.118 4.2 23.276 0 0.426-0.004 0.701-0.004 0.818v450.462l-0.166 1.161c-0.103 0.636-4.537 31.544-17.173 68.6-6.338 18.537-14.72 38.636-25.925 57.381-11.219 18.712-25.261 36.223-43.504 48.927l-0.866-1.249-34.51 34.508-9.529-9.529 36.229-36.229-10.098-14.543c12.108-8.376 22.968-20.982 32.157-35.712-5.902-18.929-33.47-113.392-1.546-130.524 18.693-10.030 32.816-15.857 42.015-19.132v-414.734l0.004-0.047v-0.16c0.093-0.976-0.437-10.623-4.962-17.941-2.256-3.725-5.191-6.998-9.918-9.663-4.735-2.631-11.598-4.801-22.375-4.821-11.699 0.016-19.462 2.279-24.924 5.076-8.074 4.208-11.912 9.949-14.28 15.236-1.134 2.61-1.777 5.016-2.105 6.615-0.142 0.692-0.223 1.236-0.271 1.577 0.030 5.234 0.165 33.477 0.168 71.26-0.004 45.703-0.199 105.346-1.041 155.203-0.348 22.493-5.875 41.304-15.093 56.136-13.865 22.38-35.085 34.73-54.987 41.26-5.214 1.712-10.369 3.058-15.389 4.122v440.505c0 11.483-9.309 20.791-20.791 20.791h-618.537c-11.483 0-20.791-9.309-20.791-20.791l-0.138-418.872-0.014-34.177zM910.495 633.388c-9.096 14.294 10.829 89.229 10.829 89.229 21.657-29.887 30.754-111.753 30.754-111.753s-32.486 8.23-41.582 22.524zM343.887 56.031l89.353 181.169-110.666 10.11 196.745 245.662-63.94-188.549 124.605-17.216-236.098-231.176zM714.136 594.405c0-11.483-9.309-20.791-20.791-20.791h-472.999c-11.483 0-20.791 9.309-20.791 20.791v258.157c0 11.483 9.309 20.791 20.791 20.791h472.999c11.483 0 20.791-9.309 20.791-20.791v-258.157z" />
<glyph unicode="&#xe93a;" glyph-name="save" d="M614.864 928.157h131.797v-256.114h-131.797v256.114zM919.932 959.978h-919.918v-1023.966h1023.966v921.064l-104.048 102.902zM212.919 947.304h588.018v-312.437h-588.018v312.437zM916.706 62.027c0-11.199-9.079-20.278-20.278-20.278h-768.857c-11.199 0-20.278 9.079-20.278 20.278v427.518c0 11.199 9.079 20.278 20.278 20.278h768.857c11.199 0 20.278-9.079 20.278-20.278v-427.518z" />
<glyph unicode="&#xe93b;" glyph-name="info-circle2" d="M0.011 447.99c0.009 282.765 229.218 511.975 511.979 511.985v0c282.764-0.010 511.972-229.219 511.985-511.982v0c-0.014-282.763-229.221-511.971-511.985-511.979v0c-282.764 0.007-511.971 229.212-511.979 511.976v0zM169.343 790.64c-87.715-87.737-141.924-208.794-141.932-342.648v0c0.006-133.856 54.217-254.914 141.932-342.648v0c87.733-87.712 208.79-141.923 342.646-141.929v0c133.856 0.006 254.915 54.217 342.652 141.929v0c87.708 87.735 141.922 208.79 141.927 342.648v0c-0.007 133.856-54.218 254.913-141.927 342.648v0c-87.737 87.715-208.792 141.924-342.652 141.932v0c-133.852-0.007-254.91-54.217-342.646-141.932v0zM607.024 572.48l-184.408-23.128-6.609-30.605 36.188-6.687c23.684-5.661 28.326-14.163 23.215-37.763l-59.403-279.453c-15.731-72.223 8.418-106.209 65.064-106.209 43.9 0 94.88 20.294 118.009 48.149l7.081 33.517c-16.127-14.164-39.649-19.83-55.31-19.83-22.102 0-30.21 15.585-24.388 42.958l80.562 379.051zM612.694 740.687c0-44.529-36.034-80.563-80.562-80.563s-80.563 36.034-80.563 80.563c0 44.528 36.034 80.562 80.563 80.562 44.527 0 80.562-36.034 80.562-80.562z" />
<glyph unicode="&#xe93c;" glyph-name="Love2" d="M507.494-29.858l-3.092 2.050c-0.301 0.204-64.531 42.817-147.051 111.566v0c-82.52 68.785-183.349 163.584-256.955 268.959v0c-49.019 70.276-86.144 145.356-96.769 221.331v0c-2.434 17.473-3.6 34.341-3.6 50.588v0c-0.014 50.33 11.223 94.74 30.257 132.703v0c19.025 37.976 45.766 69.475 76.503 94.504v0c61.563 50.032 138.772 74.622 205.73 74.702v0c41.773-0.059 79.935-9.548 107.897-30.434v0c55.19-41.459 79.83-61.175 91.234-70.851v0c2.603 1.969 5.881 4.428 10.024 7.509v0c14.929 11.094 41.104 30.257 87.168 63.503v0l0.001-0.001c27.708 19.906 64.849 29.005 105.379 29.053v0c66.521-0.081 143.087-24.76 204.075-74.957v0c60.949-50.090 105.797-126.794 105.676-227.832v0c0-16.527-1.185-33.691-3.656-51.485v0c-10.63-75.971-47.695-150.879-96.638-220.881v0c-48.987-69.991-110.048-135.139-169.712-191.060v0c-119.321-111.802-233.13-186.686-233.542-186.969v0l-4.063-2.674-8.872 0.676zM169.222 859.676c-46.601-25.676-87.915-64.048-113.482-115.089v0c-17.048-34.061-27.223-73.834-27.236-119.949v0c0-14.889 1.064-30.436 3.324-46.662v0c9.309-67.22 42.258-136.513 87.503-202.572v0c45.204-66.073 102.513-128.854 159.567-183.542v0c103.111-98.867 205.31-171.289 233.586-190.733v0c1.002 0.684 2.097 1.434 3.279 2.249v0c7.165 4.93 17.594 12.224 30.568 21.625v0c25.948 18.811 62.091 46.056 102.699 79.7v0c81.215 67.249 180.285 160.228 251.319 261.798v0c47.409 67.69 82.155 139.087 91.762 208.481v0c2.302 16.543 3.386 32.391 3.386 47.559v0c-0.118 92.493-40.017 160.062-95.318 205.866v0c-55.263 45.699-126.453 68.528-185.956 68.446v0c-36.253 0.048-67.827-8.487-88.715-23.664v0l-8.333 11.544 8.329-11.546c-66.833-48.225-91.698-66.758-100.658-73.663v0c-2.763-2.124-4.039-3.179-4.261-3.372v0c-0.026-0.023-0.032-0.028-0.032-0.028v0 0l-10.856-10.019-9.506 11.219c-0.004 0.004-0.009 0.009-0.016 0.018v0c-0.055 0.059-0.191 0.197-0.411 0.413v0c-0.448 0.438-1.241 1.184-2.467 2.276v0c-2.456 2.185-6.648 5.76-13.481 11.299v0c-13.674 11.084-37.926 30.036-80.504 62.021v0c-20.909 15.816-53.346 24.782-90.799 24.726v0c-0.059 0-0.112 0-0.17 0v0c-44.933-0.005-96.638-12.75-143.124-38.397v0z" />
<glyph unicode="&#xe93d;" glyph-name="account2" d="M676.419 629.986c0-90.801-73.61-164.411-164.411-164.411s-164.411 73.61-164.411 164.411c0 90.801 73.61 164.411 164.411 164.411s164.411-73.61 164.411-164.411zM843.46 86.36c0.094 3.255-1.185 37.98-1.185 41.256 0 182.401-147.863 330.266-330.266 330.266-182.399 0-330.264-147.865-330.264-330.266 0-3.277 1.403-38.003 1.499-41.257 86.558-80.588 202.507-129.875 330.107-129.88 127.6 0.006 243.547 49.294 330.11 129.882zM512.003 959.984c-282.76-0.010-511.968-229.219-511.977-511.986 0.005-158.622 72.142-300.391 185.396-394.298 88.632-73.491 202.444-117.675 326.581-117.679 124.141 0.005 237.957 44.189 326.59 117.683 113.25 93.909 185.388 235.673 185.395 394.295-0.011 282.766-229.218 511.976-511.985 511.986zM854.655 105.355c-4.1-4.1-8.296-8.098-12.538-12.048-86.563-80.588-202.51-129.876-330.113-129.882-127.6 0.006-243.547 49.293-330.106 129.88-4.243 3.95-8.441 7.951-12.54 12.049-87.715 87.732-141.924 208.789-141.932 342.647 0.006 133.856 54.217 254.913 141.932 342.648 87.733 87.715 208.79 141.924 342.646 141.932 133.856-0.006 254.915-54.217 342.652-141.932 87.708-87.737 141.922-208.794 141.927-342.648-0.006-133.858-54.216-254.915-141.927-342.647z" />
<glyph unicode="&#xe93e;" glyph-name="starincircle2" d="M742.71 92.984l-230.707 121.29-230.702-121.288 44.060 256.896-186.64 181.928 257.932 37.478 115.349 233.725 115.354-233.722 257.935-37.478-186.642-181.934 44.063-256.896zM0.025 447.995c0.009 282.765 229.218 511.975 511.979 511.985v0c282.766-0.010 511.973-229.219 511.985-511.983v0c-0.014-282.764-229.219-511.971-511.985-511.979v0c-282.764 0.007-511.971 229.213-511.979 511.977v0zM169.357 790.647c-87.716-87.737-141.926-208.794-141.933-342.65v0c0.006-133.856 54.217-254.913 141.932-342.647v0c87.733-87.712 208.79-141.923 342.646-141.929v0c133.857 0.006 254.915 54.217 342.652 141.929v0c87.711 87.735 141.922 208.79 141.927 342.647v0c-0.006 133.857-54.217 254.914-141.927 342.65v0c-87.737 87.715-208.792 141.924-342.652 141.932v0c-133.852-0.007-254.909-54.217-342.645-141.932v0z" />
<glyph unicode="&#xe93f;" glyph-name="timer" d="M718.861 118.913c0.095 4.146 0.166 9.125 0.166 14.83-0.079 39.717-3.198 113.328-26.274 174.198-20.3 53.244-54.865 91.302-84.183 116.086-12.352 10.435-23.803 18.541-32.98 24.46 9.177 5.919 20.628 14.025 32.98 24.457 29.318 24.786 63.883 62.843 84.183 116.086 23.076 60.877 26.192 134.489 26.271 174.203 0 5.255-0.061 9.896-0.144 13.836h26.432v64.005h-466.636v-64.005h26.427c-0.083-3.94-0.144-8.582-0.144-13.836 0.077-39.716 3.194-113.327 26.271-174.203 20.305-53.243 54.867-91.3 84.187-116.086 12.352-10.433 23.803-18.539 32.98-24.457-9.177-5.919-20.628-14.025-32.98-24.46-29.318-24.786-63.883-62.841-84.187-116.086-23.074-60.872-26.195-134.484-26.271-174.198 0-5.706 0.071-10.684 0.167-14.83h-26.45v-64.003h466.639v64.003h-26.453zM593.416 400.935c26.329-22.747 56.211-56.703 73.734-102.748 20.967-54.735 24.553-126.424 24.476-164.442 0-0.114-0.001-0.217-0.001-0.33-9.446 4.698-21.728 10.469-36.025 16.41-29.165 12.090-66.607 24.923-105.667 30.522v251.704c9.102-5.221 25.424-15.492 43.484-31.114zM306.079 813.676h411.828v-9.201h-411.828v9.201zM332.511 777.070h358.963c0.087-3.877 0.15-8.534 0.15-13.836 0.079-38.019-3.506-109.705-24.472-164.446-1.161-3.049-2.379-6.041-3.642-8.984h-303.026c-1.265 2.945-2.488 5.934-3.648 8.984-20.971 54.743-24.555 126.429-24.476 164.446 0 5.305 0.065 9.961 0.151 13.836zM430.569 496.039c-18.83 16.271-39.453 38.305-56.097 66.362h275.042c-17.398-29.322-39.141-52.067-58.627-68.527-13.44-11.357-25.749-19.711-34.608-25.172-4.429-2.733-7.999-4.74-10.411-6.046-1.209-0.65-2.127-1.124-2.72-1.426-0.295-0.151-0.51-0.258-0.642-0.323-0.128-0.063-0.128-0.061-0.128-0.063l-19.852-9.577 0.006-5.635v-286.133l0.086-3.883 6.633-0.499c41.016-3.174 83.716-17.224 115.839-30.596 3.746-1.556 7.344-3.101 10.786-4.616h-286.212c5.922 2.711 12.423 5.548 19.412 8.386 29.509 12.012 67.608 23.978 105.657 26.85l7.107 0.7 0.113 3.657v286.37l0.023 5.131-20.364 9.848c0 0 0 0-0.128 0.063-2.012 0.985-24.619 12.392-50.911 35.132zM356.836 298.187c18.084 47.526 49.353 82.181 76.265 104.915 13.44 11.356 25.749 19.711 34.608 25.171 2.6 1.603 4.893 2.951 6.84 4.058v-251.851c-38.379-5.363-74.264-17.704-101.905-29.335-17.063-7.192-30.966-14.134-40.279-19.077-0.001 0.561-0.005 1.101-0.005 1.675-0.081 38.021 3.503 109.707 24.475 164.444zM306.079 82.31v9.201h411.825l0.001-9.201h-411.827zM0.011 447.99c0.009 282.765 229.218 511.975 511.979 511.985v0c282.765-0.010 511.972-229.219 511.985-511.982v0c-0.014-282.764-229.219-511.971-511.985-511.979v0c-282.764 0.007-511.971 229.212-511.979 511.976v0zM169.344 790.64c-87.715-87.737-141.924-208.794-141.932-342.648v0c0.006-133.856 54.217-254.914 141.932-342.648v0c87.733-87.712 208.79-141.923 342.646-141.929v0c133.857 0.006 254.915 54.217 342.652 141.929v0c87.711 87.735 141.922 208.79 141.927 342.648v0c-0.006 133.856-54.217 254.913-141.927 342.648v0c-87.737 87.715-208.792 141.924-342.652 141.932v0c-133.852-0.007-254.91-54.217-342.646-141.932v0z" />
<glyph unicode="&#xe940;" glyph-name="timer2" d="M718.861 118.913c0.095 4.146 0.166 9.125 0.166 14.83-0.079 39.717-3.198 113.328-26.274 174.198-20.3 53.244-54.865 91.302-84.183 116.086-12.352 10.435-23.803 18.541-32.98 24.46 9.177 5.919 20.628 14.025 32.98 24.457 29.318 24.786 63.883 62.843 84.183 116.086 23.076 60.877 26.192 134.489 26.271 174.203 0 5.255-0.061 9.896-0.144 13.836h26.432v64.005h-466.636v-64.005h26.427c-0.083-3.94-0.144-8.582-0.144-13.836 0.077-39.716 3.194-113.327 26.271-174.203 20.305-53.243 54.867-91.3 84.187-116.086 12.352-10.433 23.803-18.539 32.98-24.457-9.177-5.919-20.628-14.025-32.98-24.46-29.318-24.786-63.883-62.841-84.187-116.086-23.074-60.872-26.195-134.484-26.271-174.198 0-5.706 0.071-10.684 0.167-14.83h-26.45v-64.003h466.639v64.003h-26.453zM593.416 400.935c26.329-22.747 56.211-56.703 73.734-102.748 20.967-54.735 24.553-126.424 24.476-164.442 0-0.114-0.001-0.217-0.001-0.33-9.446 4.698-21.728 10.469-36.025 16.41-29.165 12.090-79.651 26.229-118.712 31.826l-0.482 256.23c9.103-5.221 38.951-21.324 57.010-36.946zM306.079 813.676h411.828v-9.201h-411.828v9.201zM332.511 777.070h358.963c0.087-3.877 0.15-8.534 0.15-13.836 0.079-38.019-3.506-109.705-24.472-164.446-1.161-3.049-2.379-6.041-3.642-8.984h-303.026c-1.265 2.945-2.488 5.934-3.648 8.984-20.971 54.743-24.555 126.429-24.476 164.446 0 5.305 0.065 9.961 0.151 13.836zM430.569 496.039c-18.83 16.271-39.453 38.305-56.097 66.362h275.042c-17.398-29.322-39.141-52.067-58.627-68.527-13.44-11.357-25.749-19.711-34.608-25.172-4.429-2.733-7.999-4.74-10.411-6.046-1.209-0.65-2.127-1.124-2.72-1.426-0.295-0.151-0.51-0.258-0.642-0.323-0.128-0.063-0.128-0.061-0.128-0.063l-19.852-9.577 0.006-5.635v-286.133l0.086-3.883 6.633-0.499c41.016-3.174 83.716-17.224 115.839-30.596 3.746-1.556 7.344-3.101 10.786-4.616h-286.212c5.922 2.711 12.423 5.548 19.412 8.386 29.509 12.012 67.608 23.978 105.657 26.85l7.107 0.7 0.113 3.657v286.37l0.023 5.131-20.364 9.848c0 0 0 0-0.128 0.063-2.012 0.985-24.619 12.392-50.911 35.132zM356.836 298.187c18.084 47.526 49.353 82.181 76.265 104.915 13.44 11.356 25.749 19.711 34.608 25.171 2.6 1.603 18.197 7.299 20.144 8.406v-255.029c-38.379-5.363-87.568-18.876-115.207-30.506-17.063-7.192-30.966-14.134-40.279-19.077-0.001 0.561-0.005 1.101-0.005 1.675-0.081 38.019 3.503 109.705 24.475 164.443zM306.079 82.31v9.201h411.825l0.001-9.201h-411.827zM0.011 447.99c0.009 282.765 229.218 511.975 511.979 511.985v0c282.765-0.010 511.972-229.219 511.985-511.982v0c-0.014-282.764-229.219-511.971-511.985-511.979v0c-282.764 0.007-511.971 229.212-511.979 511.976v0zM169.344 790.64c-87.715-87.737-141.924-208.794-141.932-342.648v0c0.006-133.856 54.217-254.914 141.932-342.648v0c87.733-87.712 208.79-141.923 342.646-141.929v0c133.857 0.006 254.915 54.217 342.652 141.929v0c87.711 87.735 141.922 208.79 141.927 342.648v0c-0.006 133.856-54.217 254.913-141.927 342.648v0c-87.737 87.715-208.792 141.924-342.652 141.932v0c-133.852-0.007-254.91-54.217-342.646-141.932v0zM360.937 107.617l308.631 1.922-7.691 17.306-135.567 34.613 2.884 277.865 55.766 35.575 79.801 69.226 8.653 31.728c0 0-145.182-6.731-149.989-6.731s-154.796 3.847-154.796 3.847 31.728-61.535 34.613-64.419 35.575-24.997 35.575-24.997l32.691-33.651 5.769-10.575 21.153 5.769-0.962-282.672-73.072-11.538c0 0-52.882-18.269-54.804-21.153s-8.654-22.115-8.654-22.115z" />
<glyph unicode="&#xe941;" glyph-name="info-circle" d="M511.993 0.027c-247.413 0-447.98 200.567-447.98 447.98s200.567 447.98 447.98 447.98v0c247.413 0 447.98-200.567 447.98-447.98s-200.567-447.98-447.98-447.98v0zM511.993-63.971c282.758 0 511.978 229.22 511.978 511.978s-229.22 511.978-511.978 511.978v0c-282.758 0-511.978-229.22-511.978-511.978s229.22-511.978 511.978-511.978v0zM571.51 538.371l-146.554-18.367-5.248-24.319 28.799-5.312c18.815-4.48 22.527-11.264 18.431-30.015l-47.23-221.942c-12.415-57.405 6.72-84.412 51.71-84.412 34.878 0 75.389 16.127 93.756 38.27l5.632 26.623c-12.799-11.264-31.487-15.743-43.902-15.743-17.599 0-23.999 12.351-19.455 34.111l64.061 301.107zM575.99 671.997c0-35.344-28.653-63.997-63.997-63.997s-63.997 28.653-63.997 63.997v0c0 35.344 28.653 63.997 63.997 63.997s63.997-28.653 63.997-63.997v0z" />
<glyph unicode="&#xe942;" glyph-name="info-circle-fill" d="M511.993-63.971c282.758 0 511.978 229.22 511.978 511.978s-229.22 511.978-511.978 511.978v0c-282.758 0-511.978-229.22-511.978-511.978s229.22-511.978 511.978-511.978v0zM571.51 538.371l-63.997-301.107c-4.48-21.759 1.856-34.111 19.455-34.111 12.415 0 31.167 4.48 43.902 15.743l-5.632-26.623c-18.367-22.143-58.877-38.27-93.756-38.27-44.99 0-64.125 27.007-51.71 84.412l47.23 221.942c4.096 18.751 0.384 25.535-18.367 30.079l-28.863 5.184 5.248 24.383 146.554 18.367zM511.993 608c-35.344 0-63.997 28.653-63.997 63.997s28.653 63.997 63.997 63.997v0c35.344 0 63.997-28.653 63.997-63.997s-28.653-63.997-63.997-63.997v0z" />
<glyph unicode="&#xe943;" glyph-name="caret-down-fill" d="M463.808 247.040l-306.944 350.848c-36.224 41.28-6.784 106.112 48.192 106.112h613.888c0.016 0 0.036 0 0.055 0 35.346 0 64-28.654 64-64 0-16.19-6.012-30.976-15.924-42.247l0.062 0.071-306.944-350.72c-11.793-13.445-29.007-21.887-48.192-21.887s-36.399 8.442-48.129 21.814l-0.063 0.073z" />
<glyph unicode="&#xe944;" glyph-name="chat" d="M0.030 127.704l1.943 30.468c20.867 0.496 35.417 6.162 46.704 14.421v0c11.241 8.293 19.368 19.665 25.221 32.359v0c11.394 24.507 13.295 53.446 13.334 65.655v0c-53.134 50.151-85.299 111.649-85.287 178.494v0c-0.021 45.677 15.074 89.119 41.633 127.862v0c26.569 38.788 64.5 73.096 110.82 101.725v0c92.671 57.197 219.115 91.943 358.557 91.984v0c104.585-0.011 201.851-19.607 283.047-53.486v0c81.155-33.909 146.444-82.052 186.33-140.222v0c26.559-38.742 41.655-82.185 41.634-127.862v0c0.021-45.677-15.079-89.119-41.634-127.86v0c-26.57-38.788-64.495-73.096-110.82-101.72v0c-92.674-57.2-219.11-91.948-358.557-91.988v0c-114.003 0.018-219.309 23.285-304.586 62.994v0c-22.221-26.996-51.642-43.062-80.612-52.381v0c-32.3-10.395-64.464-12.81-88.458-12.828v0c-23.161 0-38.716 2.306-39.269 2.385v0zM211.304 223.081l2.21-1.071c81.891-39.806 186.065-63.853 299.443-63.832v0c100.741-0.010 194.215 18.954 271.245 51.118v0c77.072 32.13 137.493 77.511 172.852 129.255v0c23.609 34.538 36.253 71.664 36.274 110.55v0c-0.021 38.891-12.666 76.013-36.274 110.55v0c-23.599 34.491-58.26 66.175-101.64 92.968v0c-86.733 53.641-208.136 87.45-342.454 87.411v0c-100.74 0.010-194.21-18.956-271.24-51.123v0c-77.072-32.13-137.492-77.51-172.851-129.257v0c-23.609-34.537-36.253-71.659-36.275-110.55v0c0.015-58.388 28.684-113.377 80.161-160.365v0l4.615-4.201 0.363-6.239c0.015-0.258 0.142-2.602 0.145-6.549v0c-0.021-10.387-0.85-31.799-7.397-55.482v0c-5.375-19.313-14.68-40.59-31.423-57.695v0c12.802 1.739 26.206 4.503 39.298 8.738v0c27.975 9.046 54.101 24.398 72.034 50.187v0l5.343 7.69 15.569-2.103zM200.915 193.564v0zM201.385 197.043v0z" />
<glyph unicode="&#xe945;" glyph-name="envelope" d="M28.318 100.116c-15.632 0.013-28.281 12.663-28.293 28.293v0 640.279c0.003 7.121 2.652 13.818 7.291 18.831v0c4.591 5.019 11.481 8.377 19 8.353v0c0.933 0 1.885-0.051 2.844-0.154v0h965.703c0.939 0.1 1.88 0.154 2.82 0.154v0c7.518 0.024 14.407-3.334 18.998-8.351v0c4.641-5.009 7.293-11.709 7.295-18.834v0-640.279c-0.011-15.632-12.661-28.281-28.292-28.293v0h-967.368zM26.299 768.688v-640.279c0.003-1.109 0.913-2.016 2.019-2.019v0h967.368c1.103 0.003 2.016 0.913 2.016 2.019v0l0.003 640.279c0.001 0.433-0.125 0.725-0.22 0.878v0l-0.811-0.123-970.156 0.123c-0.097-0.153-0.221-0.444-0.218-0.878v0zM1.127 742.41l13.971 22.25 496.916-311.973 496.912 310.721 13.93-22.276-510.868-319.451-510.862 320.727zM5.555 161.118l426.012 328.978 16.059-20.795-426.012-328.981-16.059 20.797zM576.105 476.678l16.606 20.358 426.012-347.505-16.606-20.358-426.012 347.505z" />
<glyph unicode="&#xe946;" glyph-name="steeringwheel" d="M511.997 959.968c-282.758-0.008-511.963-229.213-511.972-511.974 0.008-282.758 229.213-511.963 511.972-511.973 282.759 0.009 511.963 229.213 511.974 511.973-0.010 282.76-229.214 511.966-511.974 511.974zM167.436 792.557c88.222 88.199 209.964 142.717 344.561 142.722 134.598-0.005 256.34-54.523 344.561-142.722 66.847-66.863 114.336-152.984 133.419-249.362l-260.326-23.083c0 0-163.402 48.079-214.405 48.079-54.576 0-207.908-48.079-207.908-48.079l-273.319 23.097c19.084 96.371 66.572 182.489 133.415 249.347zM597.11 441.498c0-45.571-36.942-82.513-82.513-82.513s-82.513 36.942-82.513 82.513 36.942 82.513 82.513 82.513 82.513-36.942 82.513-82.513zM24.737 444.527c25.838-2.932 298.441-35.123 352.771-94.639 49.625-54.362 86.514-330.852 93.614-387.475-118.275 9.82-224.488 61.843-303.685 141.020-87.443 87.463-141.767 207.874-142.7 341.093zM856.558 103.434c-78.030-78.010-182.286-129.662-298.463-140.559 7.157 58.554 44.019 341.805 93.591 396.11 51.787 56.73 301.899 81.137 347.568 85.155-1.034-133.065-55.337-253.329-142.696-340.706z" />
<glyph unicode="&#xe947;" glyph-name="chevron-left" d="M726.656 854.648c5.808-5.794 9.401-13.805 9.401-22.656s-3.593-16.862-9.401-22.655l-361.409-361.345 361.408-361.344c5.798-5.798 9.384-13.808 9.384-22.656 0-17.695-14.345-32.040-32.040-32.040-8.848 0-16.858 3.586-22.656 9.384v0l-384 384c-5.808 5.794-9.401 13.805-9.401 22.656s3.593 16.862 9.401 22.655l384.001 384.001c5.794 5.808 13.805 9.401 22.656 9.401s16.862-3.593 22.655-9.401l0.001-0.001z" />
<glyph unicode="&#xe948;" glyph-name="chevron-left2" d="M470.742 854.648c5.808-5.794 9.401-13.805 9.401-22.656s-3.593-16.862-9.401-22.655l-361.409-361.345 361.408-361.344c5.798-5.798 9.384-13.808 9.384-22.656 0-17.695-14.345-32.040-32.040-32.040-8.848 0-16.858 3.586-22.656 9.384v0l-384 384c-5.808 5.794-9.401 13.805-9.401 22.656s3.593 16.862 9.401 22.655l384.001 384.001c5.794 5.808 13.805 9.401 22.656 9.401s16.862-3.593 22.655-9.401l0.001-0.001z" />
<glyph unicode="&#xe949;" glyph-name="chevron-right2" d="M553.266 854.648c5.794 5.808 13.805 9.401 22.656 9.401s16.862-3.593 22.655-9.401l384.001-384.001c5.808-5.794 9.401-13.805 9.401-22.656s-3.593-16.862-9.401-22.655l-384.001-384.001c-5.798-5.798-13.808-9.384-22.656-9.384-17.695 0-32.040 14.345-32.040 32.040 0 8.848 3.586 16.858 9.384 22.656v0l361.408 361.344-361.408 361.344c-5.808 5.794-9.401 13.805-9.401 22.656s3.593 16.862 9.401 22.655l0.001 0.001z" />
<glyph unicode="&#xe94a;" glyph-name="calendar" d="M223.996 960c17.673 0 31.999-14.327 31.999-31.999v0-31.999h511.991v31.999c0 17.673 14.327 31.999 31.999 31.999s31.999-14.327 31.999-31.999v0-31.999h63.999c70.691 0 127.998-57.307 127.998-127.998v0-703.988c0-70.691-57.307-127.998-127.998-127.998v0h-767.987c-70.691 0-127.998 57.307-127.998 127.998v0 703.988c0 70.691 57.307 127.998 127.998 127.998v0h63.999v31.999c0 17.673 14.327 31.999 31.999 31.999v0zM63.999 704.005v-639.989c0-35.345 28.653-63.999 63.999-63.999v0h767.987c35.345 0 63.999 28.653 63.999 63.999v0 639.989h-895.984z" />
</font>
</defs>
</svg>
